<?xml version="1.0" standalone="no"?>
<!DOCTYPE svg PUBLIC "-//W3C//DTD SVG 1.1//EN" "http://www.w3.org/Graphics/SVG/1.1/DTD/svg11.dtd" >
<svg xmlns="http://www.w3.org/2000/svg" xmlns:xlink="http://www.w3.org/1999/xlink" version="1.1">
<metadata>
Created by FontForge 20201107 at Wed Oct  2 02:28:45 2024
 By 
Copyright (c) 2020 by Paulo Goode. All rights reserved.
</metadata>
<defs>
<font id="Audacious-Bold" horiz-adv-x="684" >
  <font-face 
    font-family="Audacious"
    font-weight="700"
    font-stretch="normal"
    units-per-em="2048"
    panose-1="0 0 0 0 0 0 0 0 0 0"
    ascent="1638"
    descent="-410"
    x-height="971"
    cap-height="1315"
    bbox="-547 -506 3129 1714"
    underline-thickness="102"
    underline-position="-255"
    unicode-range="U+0020-FB02"
  />
<missing-glyph horiz-adv-x="1308" 
d="M63 0q-29 0 -48 19.5t-19 48.5v1179q0 29 19 48.5t48 19.5h1180q29 0 48.5 -19.5t19.5 -48.5v-1179q0 -29 -19.5 -48.5t-48.5 -19.5h-1180zM90 119q0 -13 10 -23t23 -10h1061q14 0 23.5 10t9.5 23v1077q0 14 -9.5 23.5t-23.5 9.5h-1061q-12 0 -22.5 -10t-10.5 -23v-1077z
M336 420q-25 25 0 47l156 158q10 11 10 24t-10 23l-156 155q-9 9 -9.5 24t9.5 26l86 86q9 9 23.5 9.5t25.5 -9.5l156 -156q10 -12 23.5 -12t23.5 12l157 158q23 23 50 0l88 -91q23 -24 0 -47l-158 -157q-21 -24 0 -49l156 -156q12 -9 11.5 -23t-11.5 -26l-86 -84
q-11 -10 -24 -10t-23 10l-156 155q-26 23 -49 0l-158 -157q-22 -25 -47 0z" />
    <glyph glyph-name="fi" unicode="fi" horiz-adv-x="1413" 
d="M49 0q-16 0 -24.5 16t-8.5 27t22 22t49 19.5t49 24t22 34.5v592q0 19 -22 33.5t-49 22t-49 18t-22 22.5t8 25t23 16q101 16 117 134q26 223 116 340.5t236 117.5q98 0 166 -48t68 -140q0 -58 -39.5 -118t-114.5 -60q-58 0 -101 30.5t-62.5 66.5t-42 66.5t-44.5 30.5
q-39 0 -39 -75q0 -59 25.5 -105.5t62 -72.5t81 -43.5t77.5 -23t57 -5.5h72q29 0 25 -33l-15 -94q-3 -23 -39 -23h-90q-35 0 -35 -39v-635q0 -24 46 -41.5t91.5 -30.5t45.5 -28q0 -11 -9 -27t-24 -16h-629zM745 43q0 11 22 22t49 18.5t49 22t22 33.5v594q0 19 -22 34
t-49 22.5t-49 18.5t-22 23q0 36 33 41q20 3 82 12t78 11.5t59.5 11t64.5 16t52.5 20t61.5 28.5q37 22 59 22q9 0 15.5 -7t6.5 -21v-826q0 -19 22 -33.5t48 -22t48 -18.5t22 -22q0 -12 -8.5 -27.5t-24.5 -15.5h-586q-16 0 -24.5 15.5t-8.5 27.5zM848 1227q0 86 58 145.5
t153 59.5q83 0 150 -46.5t67 -138.5q0 -87 -58 -146t-153 -59q-53 0 -100 17t-82 60.5t-35 107.5z" />
    <glyph glyph-name="fl" unicode="fl" horiz-adv-x="1413" 
d="M49 0q-16 0 -24.5 15.5t-8.5 27.5q0 11 22 22t49 18.5t49 22t22 33.5v596q0 19 -22 33.5t-49 22t-49 18t-22 22.5t8 25t23 16q102 16 117 127q28 245 126.5 356t262.5 111q97 0 165.5 -40t92.5 -107q138 19 216.5 42.5t150.5 76.5q32 26 57 26q22 0 22 -30v-1295
q0 -19 22 -33.5t48 -22t48 -18.5t22 -22q0 -12 -8.5 -27.5t-24.5 -15.5h-586q-16 0 -24.5 15.5t-8.5 27.5q0 11 22 22t49 18.5t49 22t22 33.5v1037q0 32 -66 55q-7 -54 -46 -94.5t-113 -40.5q-65 0 -114.5 20t-76.5 48t-47 56t-38 48t-36 20q-39 0 -39 -69q0 -59 24.5 -106
t59.5 -73.5t79 -43.5t77 -23t59 -6h72q32 0 25 -33l-15 -94q-3 -23 -39 -23h-90q-35 0 -35 -39v-639q0 -23 46 -40t91.5 -30t45.5 -28q0 -10 -9 -25.5t-24 -15.5h-629z" />
    <glyph glyph-name=".notdef" horiz-adv-x="1308" 
d="M63 0q-29 0 -48 19.5t-19 48.5v1179q0 29 19 48.5t48 19.5h1180q29 0 48.5 -19.5t19.5 -48.5v-1179q0 -29 -19.5 -48.5t-48.5 -19.5h-1180zM90 119q0 -13 10 -23t23 -10h1061q14 0 23.5 10t9.5 23v1077q0 14 -9.5 23.5t-23.5 9.5h-1061q-12 0 -22.5 -10t-10.5 -23v-1077z
M336 420q-25 25 0 47l156 158q10 11 10 24t-10 23l-156 155q-9 9 -9.5 24t9.5 26l86 86q9 9 23.5 9.5t25.5 -9.5l156 -156q10 -12 23.5 -12t23.5 12l157 158q23 23 50 0l88 -91q23 -24 0 -47l-158 -157q-21 -24 0 -49l156 -156q12 -9 11.5 -23t-11.5 -26l-86 -84
q-11 -10 -24 -10t-23 10l-156 155q-26 23 -49 0l-158 -157q-22 -25 -47 0z" />
    <glyph glyph-name=".null" horiz-adv-x="0" 
 />
    <glyph glyph-name="nonmarkingreturn" horiz-adv-x="682" 
 />
    <glyph glyph-name="space" unicode=" " horiz-adv-x="346" 
 />
    <glyph glyph-name="space" unicode="&#xa0;" horiz-adv-x="346" 
 />
    <glyph glyph-name="exclam" unicode="!" horiz-adv-x="710" 
d="M399 469q-22 0 -36.5 12.5t-18.5 23.5t-10 32q-40 165 -85 308.5t-64 209t-19 119.5q0 140 56 204t177 64q120 0 177 -64t57 -202q0 -55 -18.5 -121t-64 -209.5t-85.5 -306.5q-5 -20 -10.5 -33t-20 -25t-35.5 -12zM186 162q0 87 57 147t152 60q82 0 149.5 -50t67.5 -137
q0 -88 -57 -148.5t-154 -60.5q-82 0 -148.5 50t-66.5 139z" />
    <glyph glyph-name="quotedbl" unicode="&#x22;" horiz-adv-x="968" 
d="M209 696q-19 0 -30 11t-13 30l-57 668q-1 18 11 29.5t30 11.5h194q19 0 31 -11t12 -30l-59 -668q-4 -41 -43 -41h-76zM584 1405q-1 18 11 29.5t30 11.5h194q19 0 31 -11t12 -30l-59 -668q-4 -41 -43 -41h-76q-19 0 -30 11t-13 30z" />
    <glyph glyph-name="numbersign" unicode="#" horiz-adv-x="1185" 
d="M680 0q-49 0 -43 49l33 221h-256l-33 -229q-6 -41 -47 -41h-64q-47 0 -41 49l33 221h-158q-49 0 -43 49l15 109q6 41 49 41h166l41 270h-162q-47 0 -41 52l14 106q6 41 47 41h170l29 199q6 43 47 43h64q47 0 41 -50l-29 -192h258l29 199q6 43 47 43h61q49 0 43 -50
l-28 -192h159q47 0 41 -49l-14 -107q-3 -20 -15.5 -31.5t-31.5 -11.5h-168l-41 -270h162q47 0 41 -49l-15 -109q-2 -19 -14.5 -30t-32.5 -11h-170l-35 -229q-6 -41 -47 -41h-61zM444 469h254l41 270h-256z" />
    <glyph glyph-name="dollar" unicode="$" horiz-adv-x="1243" 
d="M506 -207q-17 0 -28 11.5t-11 27.5v121q0 19 -7.5 29.5t-27.5 17.5q-33 11 -72 27.5t-64 26t-42 9.5q-32 0 -86 -41.5t-74 -41.5q-42 0 -35 59l39 328q6 31 24 38t44 -14l303 -268q72 -66 174 -66q70 0 106.5 35.5t36.5 93.5q0 62 -38.5 108.5t-100 75.5t-135.5 55
t-148 56t-135.5 68.5t-100 102t-38.5 147.5q0 155 90 250t242 131l10 4q19 5 27 14.5t8 30.5v131q0 17 11 29t28 12h194q18 0 29.5 -11.5t11.5 -29.5v-135q0 -19 7.5 -25.5t29.5 -11.5l31 -8h-6q169 -33 186 -33q22 0 50.5 19.5t47.5 19.5t24.5 -18t-1.5 -40l-82 -280
q-6 -19 -25 -21t-38 13l-318 227q-49 43 -112 43q-47 0 -76 -27t-29 -77q0 -63 40 -109.5t103.5 -74.5t141 -52t154.5 -52t140.5 -64.5t103.5 -98.5t40 -145q0 -159 -99.5 -272.5t-285.5 -149.5q-27 -9 -27 -39v-117q0 -16 -11.5 -27.5t-29.5 -11.5h-194z" />
    <glyph glyph-name="percent" unicode="%" horiz-adv-x="2275" 
d="M526 322q-58 0 -116.5 14.5t-116.5 47t-102.5 80t-72.5 120t-28 159.5q0 193 122.5 330t305.5 137q57 0 116 -15t116.5 -48.5t102 -82t72 -121t27.5 -159.5q0 -192 -122.5 -327t-303.5 -135zM399 791q0 -208 30.5 -298t102.5 -90q59 0 86 74t27 260q0 391 -133 391
q-58 0 -85.5 -76.5t-27.5 -260.5zM817 -74l465 1354q10 33 57 33h95q20 0 26.5 -18t-0.5 -38l-463 -1353q-12 -33 -59 -33h-94q-20 0 -27 17.5t0 37.5zM1323 401q0 193 122.5 330t305.5 137q57 0 116 -15t116.5 -48.5t102 -82t72 -121t27.5 -159.5q0 -192 -122.5 -327
t-303.5 -135q-58 0 -116.5 14.5t-116.5 47t-102.5 80t-72.5 120t-28 159.5zM1632 449q0 -208 30.5 -298t102.5 -90q59 0 86 74t27 260q0 391 -133 391q-58 0 -85.5 -76.5t-27.5 -260.5z" />
    <glyph glyph-name="ampersand" unicode="&#x26;" horiz-adv-x="1775" 
d="M573 -29q-238 0 -379 103t-141 274q0 60 20.5 113.5t53.5 92t77 69t88 49t89 28.5q14 3 18.5 14.5t-4.5 20.5q-23 20 -39.5 36.5t-41.5 49t-38.5 73.5t-13.5 87q0 151 130.5 258t330.5 107q184 0 289.5 -74t105.5 -193q0 -47 -20.5 -89.5t-56 -76t-72 -57.5t-78.5 -45
q-15 -6 -16 -19.5t14 -25.5q136 -96 321 -305q26 -33 54 -2q59 62 59 159q0 42 -20 62l-134 147q-14 17 -6 38.5t29 21.5h481q21 0 30.5 -13t3 -31t-27.5 -30l-192 -102q-37 -21 -37 -58q0 -154 -119 -293q-11 -13 -11.5 -24.5t1.5 -15.5t10 -17q24 -33 59 -69.5t94 -73.5
t111 -37q33 0 60 13.5t44.5 26.5t26.5 13q12 0 18.5 -7.5t6.5 -18.5q0 -53 -101.5 -114t-238.5 -61q-61 0 -116.5 11t-87.5 22t-67.5 33.5t-43 28.5t-27.5 24q-31 31 -68 4q-58 -38 -104.5 -61.5t-133.5 -44.5t-190 -21zM432 545q0 -180 80 -280.5t250 -100.5q104 0 162 43
q26 20 4 49q-101 124 -187 207t-204 162q-30 19 -54 12q-51 -18 -51 -92zM588 1155q0 -29 5.5 -56.5t12.5 -48t22 -44t23.5 -36.5t28 -32t26 -25t25.5 -23l19 -16q16 -16 38 -16q33 0 58.5 31.5t25.5 93.5t-22.5 126.5t-67.5 111.5t-98 47q-54 0 -75 -29t-21 -84z" />
    <glyph glyph-name="quotesingle" unicode="'" horiz-adv-x="493" 
d="M209 696q-19 0 -30 11t-13 30l-57 668q-1 18 11 29.5t30 11.5h194q19 0 31 -11t12 -30l-59 -668q-4 -41 -43 -41h-76z" />
    <glyph glyph-name="parenleft" unicode="(" horiz-adv-x="821" 
d="M729 -283q-49 0 -113.5 29.5t-133.5 82t-136 131t-119.5 169t-85 204t-32.5 228.5q0 165 63.5 328t157 278t201 186.5t194.5 71.5q23 0 36 -8t15 -13.5t2 -10.5q0 -12 -13.5 -29t-36 -36t-51 -51t-58 -71t-58 -100t-51 -132.5t-36 -174.5t-13.5 -221q0 -134 17.5 -249.5
t45.5 -193.5t62 -140.5t67.5 -102t61.5 -66.5t45.5 -44.5t17.5 -27.5q0 -3 -0.5 -5.5t-3 -9t-7 -11t-14.5 -8t-24 -3.5z" />
    <glyph glyph-name="parenright" unicode=")" horiz-adv-x="821" 
d="M92 -283q-14 0 -24 3.5t-14.5 8t-7 11t-3 9t-0.5 5.5q0 10 17.5 27.5t45.5 44.5t61.5 66.5t67.5 102t62 140.5t45.5 193.5t17.5 249.5q0 118 -13.5 221t-36 174.5t-51 132.5t-58 100t-58 71t-51 51t-36 36t-13.5 29q0 5 2 10.5t15 13.5t36 8q69 0 153 -44.5t165 -127.5
t148.5 -188t109 -238t41.5 -266q0 -115 -32.5 -228.5t-85.5 -204t-119.5 -169t-136 -131t-134 -82t-113.5 -29.5z" />
    <glyph glyph-name="asterisk" unicode="*" horiz-adv-x="909" 
d="M651 911q-26 16 -79.5 74.5t-65.5 69.5q2 -13 24.5 -87.5t22.5 -111.5q0 -41 -27 -65.5t-71 -24.5q-45 0 -72 24.5t-27 65.5q0 33 23 112t24 85q-6 -5 -59.5 -63.5t-87.5 -78.5q-37 -21 -70 -9t-57 52q-23 38 -15.5 74t44.5 57q18 11 47.5 21t49 15t57.5 13t44 9
q-156 29 -198 55q-37 21 -44.5 57t15.5 74q24 40 57 52t70 -9q25 -15 53 -42t56.5 -59.5t40.5 -43.5q-4 17 -18 59.5t-23 78t-9 60.5q0 44 27 68.5t72 24.5t71.5 -24.5t26.5 -66.5q0 -36 -22.5 -112.5t-24.5 -85.5q9 9 33 35t39 42.5t36 35.5t37 28q39 22 73 10t56 -51
q23 -38 16.5 -74t-42.5 -57q-23 -14 -61 -24.5t-80 -19.5t-56 -13q7 -2 56 -11.5t83.5 -20t57.5 -24.5q36 -21 42.5 -57t-16.5 -74q-24 -40 -57 -51.5t-72 8.5z" />
    <glyph glyph-name="plus" unicode="+" horiz-adv-x="1249" 
d="M541 37q-19 0 -31 12t-12 31v276q0 19 -11 30t-30 11h-262q-19 0 -30 12t-11 31v144q0 19 11 31t30 12h262q19 0 30 11t11 30v276q0 19 12 31t31 12h168q19 0 30 -12t11 -31v-276q0 -19 12 -30t31 -11h262q19 0 30 -12t11 -31v-144q0 -19 -11 -31t-30 -12h-262
q-19 0 -31 -11t-12 -30v-276q0 -19 -11 -31t-30 -12h-168z" />
    <glyph glyph-name="comma" unicode="," horiz-adv-x="608" 
d="M201 -319q-19 0 -28 9t-9 21q0 15 29 57.5t58.5 95t29.5 91.5q0 14 -3 23t-11 15.5t-12.5 8.5t-18.5 8q-17 6 -22.5 8t-25 11t-28.5 16t-24.5 21t-23.5 29t-14 37.5t-6 47.5q0 87 57 145t154 58q99 0 156 -60.5t57 -160.5q0 -99 -55.5 -214.5t-130 -191t-129.5 -75.5z
" />
    <glyph glyph-name="hyphen" unicode="-" horiz-adv-x="1030" 
d="M158 483q-45 0 -39 47l14 103q6 39 45 39h694q43 0 37 -45l-14 -105q-3 -39 -43 -39h-694z" />
    <glyph glyph-name="period" unicode="." horiz-adv-x="608" 
d="M307 -12q-82 0 -148.5 49.5t-66.5 138.5q0 87 57 147t152 60q83 0 150 -49.5t67 -136.5q0 -88 -57 -148.5t-154 -60.5z" />
    <glyph glyph-name="slash" unicode="/" horiz-adv-x="884" 
d="M31 -319q-31 0 -44 16t-3 45l653 1702q16 45 61 45h86q30 0 43.5 -17t1.5 -45l-651 -1701q-16 -45 -61 -45h-86z" />
    <glyph glyph-name="zero" unicode="0" horiz-adv-x="1290" 
d="M651 -29q-80 0 -159 20.5t-155.5 66.5t-134.5 112t-94 167t-36 222q0 178 69.5 325.5t200 235.5t297.5 88q80 0 159.5 -20.5t156 -67t135 -113t94 -167.5t35.5 -222q0 -133 -41 -251.5t-114 -206t-180.5 -138.5t-232.5 -51zM473 631q0 -307 43 -437.5t146 -130.5
q57 0 90.5 43.5t50 149.5t16.5 291q0 297 -47.5 434t-140.5 137q-55 0 -88.5 -44t-51.5 -152t-18 -291z" />
    <glyph glyph-name="one" unicode="1" horiz-adv-x="1015" 
d="M111 0q-15 0 -23 15.5t-8 27.5q0 14 63 37t126 50t63 50v682q0 25 -67.5 44t-135.5 35.5t-68 33.5q0 44 31 49q120 18 283.5 73t259.5 107q32 19 51 19q23 0 23 -29v-1014q0 -23 59.5 -50t119.5 -50t60 -37q0 -11 -9 -27t-24 -16h-804z" />
    <glyph glyph-name="two" unicode="2" horiz-adv-x="1189" 
d="M63 0q-29 0 -45.5 21t0.5 36l476 467q170 165 170 312q0 90 -61.5 142t-160.5 52q-54 0 -100 -16t-71.5 -36t-56.5 -36t-60 -16q-55 0 -50 47q10 85 144 160t330 75q473 0 473 -317q0 -53 -16.5 -102t-40 -86.5t-66.5 -80.5t-78.5 -72t-93.5 -73l-264 -201
q-19 -14 -15.5 -30.5t23.5 -16.5h284q18 0 26.5 1t19.5 6.5t22 17.5l190 203q29 31 51.5 26.5t18.5 -45.5l-49 -385q-3 -28 -16.5 -40.5t-45.5 -12.5h-938z" />
    <glyph glyph-name="three" unicode="3" horiz-adv-x="1161" 
d="M416 -133q-110 0 -200.5 24t-148 74.5t-57.5 120.5q0 78 56 117t127 39q64 0 107 -28.5t65.5 -69t43 -80.5t53 -68.5t81.5 -28.5q63 0 108 54.5t45 156.5q0 88 -22 151.5t-61 98.5t-84.5 50.5t-100.5 15.5q-39 0 -77 -2.5t-54 -2.5q-68 0 -68 58q0 24 15.5 41t56.5 43
q115 70 175.5 136.5t60.5 145.5q0 52 -39 83.5t-111 31.5q-49 0 -88.5 -12t-60 -27t-45.5 -27t-48 -12q-24 0 -38 12.5t-13 32.5q2 32 38 68t96 69t153.5 54.5t198.5 21.5q158 0 253 -55t95 -158q0 -145 -250 -239l-68 -27q-14 -5 -18 -14t1.5 -15.5t16.5 -5.5q48 4 93 4.5
t96 -5.5t94 -18t84 -36t69 -57t45 -83t17 -112q0 -91 -34 -169.5t-91 -134t-128 -98.5t-150 -68t-151.5 -37.5t-137.5 -12.5z" />
    <glyph glyph-name="four" unicode="4" horiz-adv-x="1300" 
d="M506 -100q-15 0 -23 15.5t-8 27.5t24 23t53 19t53 23.5t24 34.5v131q0 39 -37 39h-490q-58 0 -61 55l-2 33q0 5 0.5 10t1 8t2.5 8l3 7.5t4.5 8t4.5 7.5t5.5 8.5t5.5 8.5l624 852q24 34 72 16l176 -84q24 -13 27.5 -33.5t-19.5 -46.5l-667 -670q-11 -12 -7.5 -22t17.5 -10
h309q17 0 28 11t11 28v200q0 13 1 20.5t10 18.5t26 19q105 46 268 168q31 22 51.5 17t20.5 -30v-413q0 -17 11 -28t28 -11h170q28 0 24 -35l-6 -98q-3 -23 -31 -23h-161q-35 0 -35 -39v-131q0 -19 24 -34.5t53.5 -23.5t53.5 -19t24 -23t-7.5 -27.5t-22.5 -15.5h-633z" />
    <glyph glyph-name="five" unicode="5" horiz-adv-x="1206" 
d="M446 -133q-70 0 -136.5 11t-130 34.5t-102 68.5t-38.5 105q0 82 54 125t136 43q49 0 88.5 -20.5t63.5 -51.5t49 -67.5t44.5 -67.5t49.5 -51.5t66 -20.5q70 0 116 68t46 217q0 123 -76.5 184.5t-220.5 61.5q-55 0 -127 -15.5t-99 -15.5q-24 0 -38 17t-11 43l113 606
q8 39 49 39h616q39 0 75 19.5t50 19.5q13 0 16.5 -10.5t-1.5 -22.5l-88 -262q-19 -52 -90 -52h-523q-32 0 -37 -24l-38 -207q-3 -15 2 -21t22 -6q14 0 54.5 15t89 32.5t127 32.5t159.5 15q33 0 69.5 -6t80.5 -19t83.5 -37.5t72 -57.5t52 -84t19.5 -112q0 -134 -101.5 -256.5
t-265.5 -196t-340 -73.5z" />
    <glyph glyph-name="six" unicode="6" horiz-adv-x="1275" 
d="M670 -31q-118 0 -225.5 40t-190.5 112t-132.5 182t-49.5 242q0 139 53 264t138 215.5t193.5 160t219.5 107.5t215 49q100 10 100 -28q0 -16 -18 -33t-37.5 -28t-58.5 -29q-410 -198 -410 -629q0 -111 14 -202.5t42.5 -163t77 -111t112.5 -39.5q68 0 108.5 67.5
t40.5 182.5q0 182 -55 296.5t-145 114.5q-20 0 -43.5 -7t-34.5 -7q-22 0 -28 18.5t17 40.5q39 34 103.5 54t128.5 20q57 0 112 -10.5t111.5 -36t99 -64t69 -100.5t26.5 -139q0 -107 -38 -204t-107.5 -171.5t-175 -119t-232.5 -44.5z" />
    <glyph glyph-name="seven" unicode="7" horiz-adv-x="1083" 
d="M268 -123q-15 -2 -28.5 7.5t-10.5 33.5q26 218 149.5 432t346.5 467q14 16 18.5 28t-1.5 19.5t-23 7.5h-488q-39 0 -68.5 -12t-49.5 -24.5t-35 -12.5q-13 0 -19 9.5t0 31.5l105 279q5 16 27 26.5t57 10.5h758q57 0 64 -39t-34 -94q-190 -252 -271 -513t-81 -569
q0 -45 -37 -45q-140 0 -379 -43z" />
    <glyph glyph-name="eight" unicode="8" horiz-adv-x="1288" 
d="M618 -31q-150 0 -274 45.5t-200 134t-76 203.5q0 45 15.5 87t33 68.5t55.5 60t55.5 46t59.5 41.5q18 13 2 29q-86 86 -117 134t-31 120q0 183 145 294t380 111q208 0 332.5 -84t127.5 -235q1 -43 -9 -78.5t-34.5 -66.5t-48.5 -53t-65 -54q-20 -17 0 -31q2 -1 24.5 -14
t31 -18t31.5 -20t34.5 -25t32 -28.5t31.5 -34.5t26 -39t22.5 -45.5t13 -50.5t5.5 -58q0 -123 -80 -224t-218.5 -158t-304.5 -57zM362 389q0 -148 77 -235.5t210 -87.5q92 0 142.5 45t50.5 125q0 160 -240 280q-18 7 -141 66q-20 10 -33 -7q-25 -27 -45.5 -75t-20.5 -111z
M481 1106q0 -34 8.5 -62.5t30 -53.5t41.5 -43t59 -39.5t66 -35t78 -36.5q27 -12 41 6q25 25 46 82t21 116q0 56 -21.5 98.5t-57.5 65.5t-75 34t-81 11q-156 0 -156 -143z" />
    <glyph glyph-name="nine" unicode="9" horiz-adv-x="1273" 
d="M365 -135q-107 -2 -107 37q0 7 2 12t7 10t9.5 8.5t14 8t16.5 7.5t19.5 8t21.5 9q110 48 189 102t131 111.5t82.5 129t42.5 147t12 172.5q0 222 -58 350.5t-176 128.5q-159 0 -159 -232q0 -173 70.5 -285t166.5 -112q16 0 35 3t25 3q12 0 17 -11.5t3 -22.5
q-24 -107 -213 -107q-91 0 -173.5 27t-147.5 77.5t-103.5 130.5t-38.5 179q0 139 74.5 243.5t196.5 156.5t272 52q173 0 312.5 -72t216.5 -194.5t77 -269.5q0 -139 -54 -267.5t-142.5 -223.5t-198 -167t-224 -109.5t-218.5 -39.5z" />
    <glyph glyph-name="colon" unicode=":" horiz-adv-x="716" 
d="M385 -12q-82 0 -148.5 49.5t-66.5 138.5q0 87 57 147t152 60q83 0 150 -49.5t67 -136.5q0 -88 -57 -148.5t-154 -60.5zM170 768q0 87 57 147t152 60q82 0 149.5 -50t67.5 -137q0 -88 -57 -148t-154 -60q-82 0 -148.5 49.5t-66.5 138.5z" />
    <glyph glyph-name="semicolon" unicode=";" horiz-adv-x="718" 
d="M385 580q-82 0 -148.5 49.5t-66.5 138.5q0 87 57 147t152 60q82 0 149.5 -50t67.5 -137q0 -88 -57 -148t-154 -60zM170 180q0 87 57 145t154 58q99 0 156 -60.5t57 -160.5q0 -99 -55.5 -214.5t-130 -191t-129.5 -75.5q-19 0 -28 9t-9 21q0 15 29 57.5t58 95t29 91.5
q0 14 -3 23t-11 15.5t-12.5 8.5t-18.5 8q-23 8 -33.5 12t-35.5 19t-38 31t-24.5 44.5t-11.5 63.5z" />
    <glyph glyph-name="less" unicode="&#x3c;" horiz-adv-x="1236" 
d="M121 442q-33 18 -33 45v50q0 29 31 45l848 424q40 19 57 -23l59 -127q17 -38 -20 -57l-576 -264q-13 -7 -13 -20t13 -21l576 -269q39 -19 22 -57l-59 -127q-8 -18 -24 -24.5t-33 1.5z" />
    <glyph glyph-name="equal" unicode="=" horiz-adv-x="1249" 
d="M195 186q-19 0 -30 12t-11 31v144q0 19 11 31t30 12h860q19 0 30 -12t11 -31v-144q0 -19 -11 -31t-30 -12h-860zM154 655v144q0 19 11 31t30 12h860q19 0 30 -12t11 -31v-144q0 -19 -11 -31t-30 -12h-860q-19 0 -30 12t-11 31z" />
    <glyph glyph-name="greater" unicode="&#x3e;" horiz-adv-x="1236" 
d="M268 18q-17 -8 -33 -1.5t-24 24.5l-59 127q-17 38 22 57l576 269q14 8 14 21t-14 20l-576 264q-37 19 -20 57l59 127q17 42 57 23l848 -424q31 -16 31 -45v-50q0 -27 -33 -45z" />
    <glyph glyph-name="question" unicode="?" horiz-adv-x="1083" 
d="M434 485q-45 37 -99 117t-54 135q0 30 23 47t82 42q9 3 13 5q6 3 34 16.5t36.5 18t34 19t35.5 22.5t31 24.5t30 30.5t23 34.5t20 41.5t11 47.5t5 55.5q0 117 -59 177t-143 60q-38 0 -61 -12.5t-23 -34.5q0 -19 17 -36t37 -30.5t37 -44.5t17 -75q0 -84 -54.5 -128
t-125.5 -44q-79 0 -130.5 52.5t-51.5 135.5q0 55 26 106t76 93.5t134.5 68t191.5 25.5q62 0 121 -8t126.5 -31.5t116.5 -60.5t82 -101.5t33 -148.5q0 -50 -11 -92.5t-33 -74t-43.5 -55t-54.5 -43.5t-53 -30.5t-52 -23.5t-40 -17q-69 -32 -95 -80.5t-62 -183.5
q-15 -49 -66 -49q-44 0 -82 30zM281 156q0 87 56.5 146.5t151.5 59.5q83 0 150.5 -49.5t67.5 -136.5q0 -88 -57 -148.5t-154 -60.5q-82 0 -148.5 50t-66.5 139z" />
    <glyph glyph-name="at" unicode="@" horiz-adv-x="1857" 
d="M938 -305q-146 0 -278 29t-242.5 87t-191.5 139.5t-126 191.5t-45 237q0 132 46.5 259t136 234.5t210 189t277.5 127.5t330 46q156 0 292.5 -33t245 -98t171.5 -172.5t63 -245.5q0 -121 -44.5 -232t-116 -192t-159 -142t-176 -91.5t-164.5 -30.5q-64 0 -84 27t-18 79
l2 82q0 21 -12 21q-14 0 -41 -24.5t-56.5 -53.5t-80.5 -53.5t-107 -24.5q-108 0 -189 83t-81 237q0 98 36.5 191.5t102.5 169t169.5 121.5t227.5 46q102 0 209.5 -18.5t161.5 -40.5q37 -17 46 -32.5t3 -49.5l-119 -518q-8 -29 -3.5 -48.5t28.5 -19.5q37 0 88.5 38t99.5 99.5
t81.5 152t33.5 181.5q0 114 -44.5 200.5t-125 139t-185.5 78.5t-233 26q-161 0 -302.5 -50.5t-245 -141t-163 -223t-59.5 -289.5q0 -120 39.5 -218t105.5 -162.5t154 -108t181 -62t192 -18.5q92 0 170.5 11.5t118 24.5t82.5 29.5t57 20.5q50 14 63 -23q6 -21 -6 -41t-34 -31
q-82 -45 -212.5 -77.5t-279.5 -32.5zM831 358q0 -131 91 -131q44 0 78.5 45t48 84t35.5 121q2 7 3 10l52 205q1 13 3.5 32t-14 35.5t-51.5 16.5q-56 0 -104.5 -45.5t-78 -112.5t-46.5 -136.5t-17 -123.5z" />
    <glyph glyph-name="A" unicode="A" horiz-adv-x="1488" 
d="M-39 0q-16 0 -24.5 19.5t-8.5 31.5q0 10 28.5 25t65.5 30.5t75.5 46.5t54.5 68l335 774q37 80 37 119q-2 26 -29.5 57.5t-54 55.5t-26.5 33q0 7 2 14t13 15.5t30 8.5q100 0 176 17.5t117.5 35t56.5 17.5t23.5 -8t17.5 -29l506 -1122q17 -38 53 -67.5t69 -42.5t58 -25.5
t25 -22.5q0 -11 -9 -31t-24 -20h-760q-16 0 -24.5 19.5t-8.5 31.5q0 10 20 18.5t48 15t55.5 13t44 15.5t12.5 20l-81 213q-11 25 -41 25h-410q-19 0 -25 -13l-10 -26q-8 -23 2 -43l76 -162q11 -22 54.5 -33.5t80.5 -19.5t37 -23q0 -12 -8 -31.5t-23 -19.5h-606zM420 539
q-5 -15 1.5 -22t16.5 -7h303q30 0 19 29l-142 360q-8 22 -22 22.5t-23 -22.5z" />
    <glyph glyph-name="B" unicode="B" horiz-adv-x="1411" 
d="M74 0q-16 0 -24.5 19.5t-8.5 31.5q0 13 24 24.5t53 20t53 24t24 34.5v1007q0 19 -24 34.5t-53 24t-53 20t-24 24.5q0 12 8.5 31.5t24.5 19.5h782q72 0 133 -11.5t112 -36t80 -68.5t29 -103q0 -117 -96 -189l-70 -51q-10 -8 -7 -18t14 -15l86 -28q47 -13 88 -34.5
t80 -56.5t61.5 -89t22.5 -121q0 -70 -26 -139.5t-79.5 -133.5t-129 -113t-183 -78.5t-232.5 -29.5h-665zM596 193q0 -16 0.5 -26.5t6 -29t16 -29t32 -19.5t51.5 -9q69 0 135 59t106 147.5t40 172.5q0 57 -25 92t-73 61l-117 62q-40 22 -16 65l108 170q35 53 35 138
q0 82 -71.5 132t-166.5 50q-29 0 -42.5 -4.5t-16 -11t-2.5 -21.5v-999z" />
    <glyph glyph-name="C" unicode="C" horiz-adv-x="1343" 
d="M745 1346q145 0 285.5 -43.5t200.5 -90.5q26 -20 27 -38.5t-13 -38.5l-213 -353q-7 -15 -29.5 -14t-31.5 20l-168 369q-21 45 -56.5 71.5t-78.5 26.5q-30 0 -58.5 -11.5t-57.5 -40.5t-50.5 -73t-35 -114.5t-13.5 -159.5q0 -137 31 -251t92 -200t159.5 -134t225.5 -48
q49 0 89 8.5t71.5 25t49.5 29.5t41 33q39 31 52 34q5 1 10 1q31 0 31 -30q0 -41 -22 -88t-68.5 -95t-110 -86.5t-154.5 -63t-194 -24.5q-104 0 -205.5 23t-196.5 74.5t-166.5 125.5t-115 184.5t-43.5 243.5q0 146 51.5 278.5t142.5 232t227 158.5t295 59z" />
    <glyph glyph-name="D" unicode="D" horiz-adv-x="1466" 
d="M74 0q-16 0 -24.5 19.5t-8.5 31.5t24.5 23.5t53.5 20t53.5 24.5t24.5 35v1007q0 19 -24.5 35t-53.5 24.5t-53.5 20t-24.5 23.5t8.5 31.5t24.5 19.5h723q94 0 183.5 -22.5t173 -72.5t145.5 -122t99.5 -179t37.5 -235q0 -148 -43 -272t-125 -216.5t-210.5 -144
t-291.5 -51.5h-692zM598 238q0 -25 2.5 -40.5t13.5 -36.5t38.5 -31.5t70.5 -10.5q130 0 201 109.5t71 332.5q0 126 -23.5 237t-61 188t-84 133.5t-94.5 83t-91 26.5q-28 0 -35.5 -7.5t-7.5 -27.5v-956z" />
    <glyph glyph-name="E" unicode="E" horiz-adv-x="1306" 
d="M74 0q-16 0 -24.5 19.5t-8.5 31.5t24.5 23.5t53.5 20t53.5 24.5t24.5 35v1007q0 19 -24.5 35t-53.5 24.5t-53.5 20t-24.5 23.5t8.5 31.5t24.5 19.5h1038q19 0 33 -12.5t14 -32.5l21 -439q1 -18 -9 -25.5t-25 -1.5t-28 25l-250 338q-15 23 -49 23h-190q-13 0 -22 -9
t-9 -22v-393q0 -13 8.5 -21t22.5 -8h82q16 0 28 15l158 184q13 16 29 10t16 -24v-525q0 -19 -16.5 -25t-28.5 11l-158 215q-11 14 -28 14h-82q-14 0 -22.5 -8.5t-8.5 -21.5v-400q0 -21 10.5 -34t30.5 -13h186q46 0 86 53l240 330q23 32 46 32t20 -40l-39 -457
q-3 -53 -60 -53h-1044z" />
    <glyph glyph-name="F" unicode="F" horiz-adv-x="1267" 
d="M74 0q-16 0 -24.5 19.5t-8.5 31.5t24.5 23.5t53.5 20t53.5 24.5t24.5 35v1007q0 19 -24.5 35t-53.5 24.5t-53.5 20t-24.5 23.5t8.5 31.5t24.5 19.5h1063q12 0 22 -9t10 -22l29 -453q0 -19 -11 -25.5t-27 0t-30 23.5l-280 338q-7 9 -11.5 12.5t-13.5 7t-22 3.5h-174
q-13 0 -22 -9t-9 -22v-418q0 -28 31 -28h96q20 0 31 14l162 205q14 17 28.5 11t14.5 -23v-568q0 -18 -15.5 -24t-27.5 10l-162 235q-10 15 -31 15h-96q-14 0 -22.5 -8t-8.5 -21v-395q0 -25 63.5 -45.5t127 -37t63.5 -32.5q0 -11 -8.5 -30t-24.5 -19h-745z" />
    <glyph glyph-name="G" unicode="G" horiz-adv-x="1468" 
d="M752 -33q-104 0 -204.5 24t-195 77.5t-166 129.5t-114.5 189.5t-43 249.5q0 149 51.5 278.5t144.5 225t232 150.5t305 55q151 0 309.5 -36.5t224.5 -90.5q27 -21 28 -38t-13 -38l-152 -320q-9 -19 -30.5 -21.5t-36.5 17.5l-279 371q-50 76 -133 76q-96 0 -165 -107.5
t-69 -312.5q0 -116 23 -228t63.5 -202.5t93 -160.5t114.5 -108t124 -38q64 0 104 37t40 79v150q0 20 -15 35l-190 192q-16 15 -7 38.5t33 23.5h592q15 0 24 -17t9 -29q0 -15 -31 -28.5t-61.5 -31.5t-30.5 -42v-434q0 -14 -9 -22.5t-22 -8.5q-18 0 -47 29t-51 29
q-20 0 -48.5 -14.5t-64.5 -35.5t-81 -42t-112.5 -35.5t-143.5 -14.5z" />
    <glyph glyph-name="H" unicode="H" horiz-adv-x="1634" 
d="M918 0q-15 0 -24 20t-9 31q0 12 23.5 23.5t52 20t52 24.5t23.5 35v444q0 12 -7.5 20.5t-20.5 8.5h-379q-13 0 -22 -8.5t-9 -20.5v-444q0 -19 23.5 -35t51.5 -24.5t51.5 -20t23.5 -23.5t-8 -31.5t-23 -19.5h-643q-16 0 -24.5 19.5t-8.5 31.5t24.5 23.5t53.5 20t53.5 24.5
t24.5 35v1007q0 19 -24.5 35t-53.5 24.5t-53.5 20t-24.5 23.5t8.5 31.5t24.5 19.5h643q15 0 23 -19.5t8 -31.5t-23.5 -23.5t-51.5 -20t-51.5 -24.5t-23.5 -35v-356q0 -13 8.5 -21t22.5 -8h379q28 0 28 29v356q0 19 -23.5 35t-52 24.5t-52 20t-23.5 23.5t8.5 31.5t24.5 19.5
h643q16 0 24 -19t8 -32q0 -12 -24 -23.5t-53.5 -20t-53.5 -24.5t-24 -35v-1007q0 -19 24 -35t53.5 -24.5t53.5 -20t24 -23.5q0 -13 -8 -32t-24 -19h-643z" />
    <glyph glyph-name="I" unicode="I" horiz-adv-x="800" 
d="M76 0q-16 0 -24.5 19.5t-8.5 31.5t24.5 23.5t54.5 20t54.5 24.5t24.5 35v1007q0 19 -24.5 35t-54.5 24.5t-54.5 20t-24.5 23.5t8.5 31.5t24.5 19.5h647q16 0 24.5 -19.5t8.5 -31.5t-24 -23.5t-53 -20t-53 -24.5t-24 -35v-1007q0 -19 24 -35t53 -24.5t53 -20t24 -23.5
t-8.5 -31.5t-24.5 -19.5h-647z" />
    <glyph glyph-name="J" unicode="J" horiz-adv-x="790" 
d="M12 -389q-91 0 -149 44t-58 124q0 77 52 125.5t139 48.5q46 0 91 -20.5t74 -45t58.5 -45t48.5 -20.5q26 0 40 15.5t14 37.5q0 14 -13.5 33t-32 42t-37.5 50.5t-32.5 66t-13.5 80.5v1014q0 19 -24.5 35t-54.5 24.5t-54.5 20t-24.5 23.5q0 11 9 31t24 20h649
q16 0 24.5 -19.5t8.5 -31.5t-24.5 -23.5t-53.5 -20t-53.5 -24.5t-24.5 -35v-674q0 -64 -0.5 -94.5t-2 -84t-5 -80.5t-10.5 -71t-17.5 -70.5t-26 -65t-36.5 -67.5t-48 -64.5t-61.5 -69.5t-77.5 -70q-159 -139 -297 -139z" />
    <glyph glyph-name="K" unicode="K" horiz-adv-x="1550" 
d="M829 0q-14 0 -25 21t-11 36q0 13 18.5 20.5t40.5 12t40.5 19t18.5 38.5v52q0 49 -22 82l-219 319q-23 41 4 68l287 278q29 29 12 62l-117 190q-10 15 -27 25t-31 14t-25 10t-11 15q0 14 9.5 33.5t25.5 19.5h620q29 0 33.5 -18.5t-20.5 -43.5l-408 -397q-28 -32 -6 -63
l403 -617q18 -30 51.5 -51t62 -29.5t50 -19t21.5 -23.5q0 -14 -10.5 -33.5t-28.5 -19.5h-736zM41 51q0 12 24.5 23.5t54.5 20t54.5 24.5t24.5 35v1007q0 19 -24.5 35t-54.5 24.5t-54.5 20t-24.5 23.5t8.5 31.5t24.5 19.5h583q15 0 24 -20.5t9 -34.5q0 -10 -14 -20.5t-31 -19
t-31 -24.5t-14 -35v-1007q0 -19 18.5 -35t41 -24.5t41 -19.5t18.5 -22q0 -13 -8 -33t-23 -20h-614q-16 0 -24.5 19.5t-8.5 31.5z" />
    <glyph glyph-name="L" unicode="L" horiz-adv-x="1277" 
d="M74 0q-16 0 -24.5 19.5t-8.5 31.5t24.5 23.5t53.5 20t53.5 24.5t24.5 35v1007q0 19 -24.5 35t-53.5 24.5t-53.5 20t-24.5 23.5t8.5 31.5t24.5 19.5h647q13 0 22 -20.5t9 -32.5q0 -11 -24 -33t-53 -43.5t-53 -47t-24 -44.5v-912q0 -21 11 -34t32 -13h117q20 0 37.5 9.5
t52.5 43.5l350 363q32 30 52 19.5t12 -46.5l-99 -471q-5 -29 -17 -41t-44 -12h-1028z" />
    <glyph glyph-name="M" unicode="M" horiz-adv-x="1894" 
d="M27 0q-16 0 -24.5 19.5t-8.5 31.5t31.5 29t69 34t70.5 47t36 64l57 918q1 24 -51 46.5t-104 41t-52 33.5q0 11 9 31t24 20h500q25 0 40 -10t27 -35l303 -641q11 -18 22.5 -18t20.5 18l287 641q20 45 59 45h461q16 0 24.5 -19.5t8.5 -31.5q0 -15 -48.5 -33t-96.5 -40
t-47 -46l51 -948q2 -31 34.5 -55.5t70.5 -37.5t69 -27t31 -26q0 -11 -9 -31t-24 -20h-705q-15 0 -24 20t-9 31q0 14 42 58.5t83 99.5t39 96l-22 543q0 8 -6 12t-14 1.5t-13 -11.5l-373 -823q-15 -33 -44.5 -31.5t-43.5 31.5l-391 829q-5 9 -13 11.5t-14 -1.5t-6 -12
l-24 -532q-2 -38 45 -97.5t95 -109.5t48 -64q0 -12 -8.5 -31.5t-24.5 -19.5h-458z" />
    <glyph glyph-name="N" unicode="N" horiz-adv-x="1492" 
d="M1305 33q0 -38 -31.5 -46.5t-59.5 13.5l-874 705q-12 10 -21.5 6t-9.5 -17v-350q0 -24 81 -89.5t162 -127t81 -76.5q0 -11 -9 -31t-24 -20h-532q-15 0 -24 20t-9 31q0 12 24 28.5t53.5 30.5t53.5 34.5t24 39.5v908q0 21 -31.5 48t-69.5 48t-69.5 42.5t-31.5 33.5
t8.5 31.5t23.5 19.5h216q17 0 31 -5t20.5 -9.5t25.5 -18.5l832 -657q41 -27 41 14v348q0 19 -51.5 62t-113.5 84t-113.5 80t-51.5 51q0 11 9 31t24 20h608q16 0 24.5 -19.5t8.5 -31.5t-35 -33t-77.5 -41t-77.5 -45.5t-35 -44.5v-1067z" />
    <glyph glyph-name="O" unicode="O" horiz-adv-x="1531" 
d="M770 -31q-105 0 -206.5 22t-199.5 73t-171.5 125t-118.5 187t-45 251q0 148 51 278.5t144 227.5t232 153.5t306 56.5q74 0 147 -11t146.5 -36t139 -61.5t122.5 -90t98 -119.5t64.5 -153t23.5 -186q0 -147 -51 -277.5t-144 -228t-232 -154.5t-306 -57zM459 905
q0 -134 31 -282t83.5 -273.5t129.5 -207t161 -81.5q98 0 153.5 87t55.5 258q0 100 -18.5 214.5t-54.5 226t-83.5 202t-113 146.5t-135.5 56q-100 0 -154.5 -86t-54.5 -260z" />
    <glyph glyph-name="P" unicode="P" horiz-adv-x="1343" 
d="M74 0q-16 0 -24.5 19.5t-8.5 31.5q0 13 24.5 24.5t53.5 20t53.5 24t24.5 34.5v1007q0 19 -24.5 34.5t-53.5 24t-53.5 20t-24.5 24.5q0 12 8.5 31.5t24.5 19.5h755q113 0 202 -22t143.5 -56.5t90.5 -81t50 -92.5t14 -94q0 -171 -169 -289t-429 -127q-39 0 -53.5 24.5
t8.5 43.5l117 88q53 34 74.5 81.5t21.5 129.5q0 165 -52 237t-175 72q-34 0 -50.5 -5t-19 -11.5t-2.5 -20.5v-1038q0 -24 54 -41.5t108.5 -31.5t54.5 -30q0 -11 -9 -31t-24 -20h-710z" />
    <glyph glyph-name="Q" unicode="Q" horiz-adv-x="1531" 
d="M1200 -438q-13 0 -21 7t-8 15q0 6 3.5 9.5t19.5 15.5q55 47 55 100q0 27 -17.5 36.5t-60.5 16.5l-311 52q-79 13 -109 29t-30 51q0 15 7 33.5t7 25.5q0 10 -9 14t-34 6q-104 9 -199 37.5t-180.5 82t-148 127t-99 178t-36.5 229.5q0 148 51 278.5t144 227.5t232 153.5
t306 56.5q74 0 147 -11t146.5 -36t139 -61.5t122.5 -90t98 -119.5t64.5 -153t23.5 -186q0 -183 -82.5 -338t-216.5 -242q-17 -11 -14.5 -26t20.5 -17l101 -6q97 -11 137.5 -52t40.5 -134q0 -75 -49.5 -148.5t-117 -117t-122.5 -43.5zM459 909q0 -139 32 -289.5t85.5 -275
t130.5 -205t159 -80.5q96 0 151.5 87.5t55.5 254.5q0 131 -31 279t-83 276.5t-130.5 212.5t-164.5 84q-96 0 -150.5 -88t-54.5 -256z" />
    <glyph glyph-name="R" unicode="R" horiz-adv-x="1484" 
d="M74 0q-16 0 -24.5 19.5t-8.5 31.5t24.5 23.5t53.5 20t53.5 24.5t24.5 35v1007q0 19 -24.5 35t-53.5 24.5t-53.5 20t-24.5 23.5t8.5 31.5t24.5 19.5h827q178 0 299 -82.5t121 -224.5q0 -108 -78 -193t-205 -121q-18 -5 -18 -14q0 -14 18 -14q70 -4 129 -101l179 -352
q22 -48 57.5 -78.5t64.5 -39.5t50.5 -18.5t21.5 -23.5t-10.5 -33.5t-28.5 -19.5h-401q-63 0 -100 39.5t-64 101.5l-158 342q-17 42 -35.5 68t-68.5 70q-17 19 -11.5 39t27.5 30l92 41q56 23 89.5 73.5t33.5 153.5q0 271 -241 271q-43 0 -54.5 -8.5t-11.5 -28.5v-1038
q0 -19 24.5 -35t53.5 -24.5t53.5 -20t24.5 -23.5t-8 -31.5t-23 -19.5h-649z" />
    <glyph glyph-name="S" unicode="S" horiz-adv-x="1275" 
d="M655 -31q-96 0 -184.5 26t-143.5 51.5t-71 25.5q-20 0 -72 -43t-78 -43q-20 0 -27 10.5t-5 32.5l24 481q1 32 25 36t49 -24l289 -358q41 -49 87.5 -77t119.5 -28q96 0 155.5 50.5t59.5 134.5q0 51 -26.5 91.5t-71 68t-102.5 50t-122 43.5t-128 43t-122 53.5t-102.5 70.5
t-71 97.5t-26.5 131.5q0 132 79 235.5t212 159t294 55.5q118 0 248.5 -25.5t190.5 -60.5q28 -17 33 -32.5t-3 -34.5l-84 -287q-9 -27 -30.5 -27.5t-44.5 23.5l-258 268q-1 1 -8.5 9.5t-10.5 11.5t-12 11.5t-15.5 13t-17 11.5t-20.5 11t-22.5 8t-26.5 6t-29 2
q-76 0 -117 -41.5t-41 -103.5q0 -55 28 -98t75 -71.5t108.5 -52.5t129 -44.5t135.5 -42.5t129.5 -52t108.5 -67t75 -93t28 -126q0 -89 -44.5 -177t-121 -157.5t-188 -112.5t-236.5 -43z" />
    <glyph glyph-name="T" unicode="T" horiz-adv-x="1460" 
d="M354 0q-15 0 -23.5 20t-8.5 33q0 14 51.5 30t103 36.5t51.5 44.5v1005q0 29 -28 29h-82q-23 0 -35 -20l-246 -383q-10 -17 -30.5 -24t-37.5 0t-16 26l33 485q0 33 35 33h1218q33 0 33 -33l33 -485q2 -19 -13.5 -26t-36.5 0t-32 24l-246 383q-14 20 -37 20h-82
q-12 0 -20 -8t-8 -21v-1005q0 -24 52 -44.5t103.5 -36.5t51.5 -30q0 -13 -8 -33t-23 -20h-752z" />
    <glyph glyph-name="U" unicode="U" horiz-adv-x="1507" 
d="M774 -31q-277 0 -433.5 136.5t-156.5 410.5v645q0 19 -25.5 35t-56.5 24.5t-56.5 20t-25.5 23.5q0 11 9 31t24 20h738q16 0 25 -19.5t9 -31.5t-38 -35t-83.5 -45.5t-83.5 -51t-38 -49.5v-614q0 -141 74.5 -224t224.5 -83q157 0 231 87t74 234v588q0 19 -37 48.5t-81 55
t-81 51.5t-37 40q0 10 9 29.5t24 19.5h520q15 0 24 -20t9 -31q0 -12 -34 -32.5t-74.5 -39t-74.5 -43t-34 -43.5v-660q0 -227 -142 -352t-403 -125z" />
    <glyph glyph-name="V" unicode="V" horiz-adv-x="1472" 
d="M92 1182q-10 20 -50 33.5t-75 23.5t-35 23t9 33t24 20h719q16 0 24.5 -19.5t8.5 -31.5q0 -10 -19 -18.5t-45.5 -15t-52 -13t-40.5 -15.5t-9 -20l334 -674q8 -17 24 -16.5t25 14.5l151 328q40 78 17 120l-125 240q-10 19 -81 34.5t-71 33.5q0 13 9 33t24 20h649
q16 0 24.5 -19.5t8.5 -33.5q0 -12 -35.5 -22t-75 -22.5t-47.5 -27.5l-587 -1182q-17 -31 -51.5 -31t-51.5 31z" />
    <glyph glyph-name="W" unicode="W" horiz-adv-x="2078" 
d="M96 1184q-8 19 -49.5 32t-78 23t-36.5 23t9 33t24 20h653q16 0 25.5 -19.5t9.5 -31.5t-18 -23t-38.5 -17.5t-35.5 -17.5t-10 -24l252 -621q6 -16 23.5 -15t23.5 15l106 248q26 50 11 84l-125 293q-8 19 -38 31t-55.5 21.5t-25.5 23.5t8.5 33.5t24.5 19.5h587
q16 0 25.5 -19.5t9.5 -31.5t-17.5 -23t-37.5 -17.5t-34 -17.5t-9 -24l250 -623q6 -16 23.5 -15t23.5 15l119 270q15 30 17 66.5t-9 62.5l-105 236q-9 19 -73 34.5t-64 33.5q0 13 9 33t24 20h621q15 0 22.5 -19.5t7.5 -33.5q0 -12 -34 -22t-72.5 -22t-46.5 -28l-576 -1184
q-14 -30 -44 -30t-42 30l-266 643q-9 21 -28.5 22t-30.5 -22l-312 -643q-14 -30 -44 -30t-42 30z" />
    <glyph glyph-name="X" unicode="X" horiz-adv-x="1574" 
d="M66 0q-16 0 -24.5 19.5t-8.5 31.5q0 15 44.5 31.5t103 42.5t83.5 61l289 392q29 47 0 98l-344 508q-14 20 -52 33t-68 22.5t-30 22.5t9 33t24 20h696q16 0 25.5 -19.5t9.5 -31.5t-25 -24t-51.5 -22t-42 -29t2.5 -44l194 -285q21 -31 43 0l119 160q11 16 14.5 22t9.5 17.5
t5 20.5t-7 18l-53 78q-11 18 -31 31t-36.5 19t-29.5 16t-13 22t8.5 31.5t23.5 19.5h533q15 0 24 -20t9 -33q0 -18 -41 -30t-96 -31t-78 -50l-277 -381q-29 -49 0 -100l340 -500q26 -38 70.5 -60.5t74 -33t29.5 -25.5q0 -11 -9 -31t-24 -20h-706q-15 0 -24 20t-9 31
q0 12 26 24.5t53 22.5t43.5 30t-1.5 46l-213 311q-7 9 -11.5 12.5t-13 2t-16.5 -14.5l-135 -182q-9 -14 -13 -24t-3 -25.5t10 -30.5l67 -100q10 -14 28.5 -24.5t34.5 -15.5t28 -13t12 -19t-9 -31t-24 -20h-567z" />
    <glyph glyph-name="Y" unicode="Y" horiz-adv-x="1374" 
d="M309 0q-15 0 -24 20t-9 33q0 14 52 30t104.5 36.5t52.5 44.5v385q0 50 -30 98l-351 539q-12 18 -55.5 30.5t-80 22.5t-36.5 23t9 33t24 20h723q16 0 24.5 -19.5t8.5 -31.5t-25 -24t-51 -21.5t-42.5 -28.5t1.5 -45l197 -307q11 -14 22.5 -14t20.5 14l114 172
q12 17 16.5 24t9.5 18.5t4.5 20t-5.5 17.5l-57 86q-14 21 -42.5 36t-48.5 25.5t-20 26.5q0 11 9 31t24 20h563q15 0 24 -20t9 -33q0 -17 -49.5 -29t-112 -31t-84.5 -51l-283 -418q-28 -42 -28 -86v-483q0 -24 51.5 -44.5t103.5 -36.5t52 -30t-8.5 -33.5t-24.5 -19.5h-752z
" />
    <glyph glyph-name="Z" unicode="Z" horiz-adv-x="1298" 
d="M109 0q-35 0 -48.5 25t5.5 59l671 1094q9 17 1.5 33t-27.5 16h-158q-29 0 -49 -25l-320 -381q-14 -16 -32 -19.5t-30 5t-11 22.5l43 437q4 49 63 49h973q34 0 47.5 -24t-4.5 -56l-649 -1051q-8 -16 0.5 -32.5t29.5 -16.5h150q39 0 90 55l330 363q18 20 40.5 24t36 -7.5
t9.5 -30.5l-96 -486q-4 -19 -7.5 -28.5t-16.5 -17t-36 -7.5h-1005z" />
    <glyph glyph-name="bracketleft" unicode="[" horiz-adv-x="737" 
d="M193 -283q-32 0 -52 20.5t-20 51.5v1565q0 32 20 51.5t52 19.5h460q29 0 25 -34l-2 -41q-5 -23 -31 -23h-182q-37 0 -37 -41v-1429q0 -41 37 -41h182q26 0 29 -23l4 -41q4 -35 -25 -35h-460z" />
    <glyph glyph-name="backslash" unicode="\" horiz-adv-x="903" 
d="M760 -319q-46 0 -62 45l-651 1701q-12 28 1.5 45t43.5 17h86q46 0 62 -45l653 -1702q10 -29 -3 -45t-44 -16h-86z" />
    <glyph glyph-name="bracketright" unicode="]" horiz-adv-x="737" 
d="M84 -283q-29 0 -25 35l4 41q3 23 29 23h182q37 0 37 41v1429q0 41 -37 41h-182q-26 0 -31 23l-2 41q-4 34 25 34h461q32 0 51.5 -19.5t19.5 -51.5v-1565q0 -31 -19.5 -51.5t-51.5 -20.5h-461z" />
    <glyph glyph-name="asciicircum" unicode="^" horiz-adv-x="1087" 
d="M782 719h-9h-9.5t-8 0.5t-8 1t-6.5 2t-6.5 3.5t-5 5.5t-4.5 7.5l-164 301q-6 12 -20 11.5t-19 -11.5l-160 -299q-11 -22 -59 -22h-123q-19 0 -25.5 21t3.5 38l288 504q19 31 48 31h104q12 0 24.5 -9.5t20.5 -23.5l287 -504q11 -17 4 -37t-25 -20h-127z" />
    <glyph glyph-name="underscore" unicode="_" horiz-adv-x="1187" 
d="M96 -260q-43 0 -37 45l9 68q6 38 45 38h977q44 0 38 -45l-8 -67q-6 -39 -45 -39h-979z" />
    <glyph glyph-name="grave" unicode="`" horiz-adv-x="737" 
d="M246 1219q-49 30 -70.5 59.5t-21.5 69.5q0 42 28 75t76 33q69 0 133 -86l174 -227q26 -36 13 -49l-21 -25q-10 -9 -14.5 -12t-13 -3t-19.5 7z" />
    <glyph glyph-name="a" unicode="a" horiz-adv-x="1241" 
d="M332 -31q-128 0 -204.5 73t-76.5 198q0 50 10.5 83t39 53.5t49 29t70.5 22.5q9 3 13 4l412 121q25 6 36 18.5t11 38.5v156q0 70 -43 111t-117 41q-75 0 -75 -46q0 -12 21.5 -49t21.5 -80q0 -89 -72 -148.5t-170 -59.5q-135 0 -135 129q0 140 152.5 236.5t377.5 96.5
q78 0 141 -13t105 -33.5t73 -51.5t47.5 -60.5t26.5 -67t12.5 -65t2.5 -59.5v-325q0 -70 57 -70q26 0 65.5 13.5t49.5 13.5q16 0 16 -25q0 -68 -58 -132.5t-149.5 -104.5t-183.5 -40q-42 0 -66 8t-32 17.5t-17 28.5l-30 82q-5 20 -17 20q-10 0 -30.5 -17t-50 -41t-67.5 -48
t-95 -41t-121 -17zM438 313q0 -74 30.5 -118.5t98.5 -44.5q32 0 65 16t48 31q12 12 12 36v203q0 12 -11.5 19.5t-31.5 1.5l-141 -45q-40 -10 -55 -28t-15 -71z" />
    <glyph glyph-name="b" unicode="b" horiz-adv-x="1273" 
d="M643 -31q-143 0 -287 37.5t-247 79.5q-19 9 -28 26.5t-9 28.5t13 19.5t29 13.5t29 17.5t13 31.5v961q0 19 -22 34t-49 22.5t-49 18.5t-22 25q0 33 31 37q143 18 230.5 42t170.5 83q1 1 10 6.5t15.5 9.5t15.5 7.5t15 3.5q22 0 22 -31v-594q0 -36 33 -23q17 6 36 26.5
t40 44.5t49.5 48t77 39.5t110.5 15.5q77 0 141 -24t114.5 -72t79 -128t28.5 -185q0 -80 -15 -158.5t-56.5 -164t-105 -150t-170.5 -106.5t-243 -42zM524 395q0 -38 0.5 -60t3.5 -64t9 -68.5t18.5 -60.5t30 -53.5t45.5 -33.5t63 -14q146 0 146 250q0 52 -5.5 110t-20.5 126
t-38 121.5t-63 89.5t-90 36q-49 0 -74 -21.5t-25 -39.5v-318z" />
    <glyph glyph-name="c" unicode="c" horiz-adv-x="1146" 
d="M584 -31q-108 0 -205 28.5t-176.5 84t-126.5 149t-47 213.5q0 110 40.5 210t113 176.5t181 121.5t236.5 45q188 0 316 -86t128 -211q0 -69 -41.5 -106t-115.5 -37q-54 0 -93 20t-60.5 52.5t-37 71t-28.5 77.5t-29 71.5t-45 52.5t-70 20q-141 0 -141 -222q0 -236 90 -341
t258 -105q63 0 115 12.5t89 35.5t59 43t44 46q23 29 52 29q28 0 28 -45q0 -36 -16.5 -84.5t-57.5 -105.5t-99.5 -104.5t-153 -79.5t-207.5 -32z" />
    <glyph glyph-name="d" unicode="d" horiz-adv-x="1275" 
d="M430 -23q-179 0 -283 116t-104 308q0 83 19.5 165t62.5 160.5t105 138t154.5 96t203.5 36.5q21 0 41 -1.5t31.5 -3t30.5 -5t30 -4.5q13 -2 20 2.5t8 9.5t1 15v170q0 19 -22 32t-49 18.5t-49 17t-22 28.5q0 34 31 39q98 13 150.5 22.5t122.5 35t128 67.5q35 26 56 26
q22 0 22 -30v-1297q0 -19 22 -33.5t49 -22.5t49 -18.5t22 -21.5t-9 -27t-24 -16h-385q-15 0 -24.5 2.5t-19 14t-12.5 32.5l-18 148q-4 34 -14 34q-9 0 -18.5 -19t-19.5 -47t-32 -61t-51.5 -61t-82 -47t-120.5 -19zM434 453q0 -133 41.5 -185.5t110.5 -52.5q164 0 164 320
v303q0 34 -23.5 58t-69.5 24q-59 0 -105 -49.5t-70 -125t-36 -150.5t-12 -142z" />
    <glyph glyph-name="e" unicode="e" horiz-adv-x="1153" 
d="M600 -31q-85 0 -165 17.5t-154.5 56.5t-130 95.5t-88.5 141t-33 185.5q0 110 40.5 207.5t112.5 169t176.5 113.5t227.5 42q201 0 334 -100.5t133 -243.5q0 -28 -5.5 -46.5t-16.5 -26t-20 -9.5t-22 -2h-547q-11 0 -17 -2t-11.5 -13t-5.5 -32q0 -50 19.5 -98.5t56.5 -91
t100 -68.5t141 -26q187 0 295 120q4 5 15.5 18.5t16 18t13 12.5t14.5 10.5t13 2.5q26 0 26 -45q0 -37 -16 -85t-55 -105.5t-95.5 -104.5t-148.5 -79t-203 -32zM397 717q0 -24 7.5 -37t14 -14.5t17.5 -1.5h189q12 0 18.5 1t16 7t14 21.5t4.5 41.5q0 76 -40 132.5t-101 56.5
q-36 0 -65 -24t-44.5 -59.5t-23 -67.5t-7.5 -56z" />
    <glyph glyph-name="f" unicode="f" horiz-adv-x="729" 
d="M49 0q-16 0 -24.5 15.5t-8.5 27.5q0 11 22 22t49 18.5t49 22t22 33.5v596q0 19 -22 33.5t-49 22t-49 18t-22 22.5t8 25t23 16q102 16 117 127q28 245 126.5 356t262.5 111q121 0 195.5 -60.5t74.5 -154.5q0 -25 -8.5 -50.5t-26 -49.5t-50.5 -39.5t-76 -15.5
q-65 0 -114.5 20t-76.5 48t-47 56t-38 48t-36 20q-39 0 -39 -69q0 -59 24.5 -106t59.5 -73.5t79 -43.5t77 -23t59 -6h72q32 0 25 -33l-15 -94q-3 -23 -39 -23h-90q-35 0 -35 -39v-639q0 -23 46 -40t91.5 -30t45.5 -28q0 -10 -9 -25.5t-24 -15.5h-629z" />
    <glyph glyph-name="g" unicode="g" horiz-adv-x="1189" 
d="M426 -446q-162 0 -278.5 69t-116.5 144q0 24 9.5 40.5t18.5 22.5t33 20l154 87q10 4 8.5 13.5t-14.5 12.5l-31 4q-66 10 -111 37.5t-45 69.5q0 57 94 119l144 102q31 22 0 37q-43 21 -76.5 43t-71.5 58.5t-59 88.5t-21 115q0 165 134 262.5t340 97.5q121 0 225 -26
q18 -2 24.5 1.5t6.5 16.5q0 18 -4.5 62t-4.5 65q0 88 55.5 128t149.5 40q102 0 170 -45.5t68 -126.5q0 -23 -6 -43.5t-20.5 -42t-44.5 -34.5t-73 -13q-39 0 -88 29.5t-86 29.5q-32 0 -46.5 -13.5t-12 -32t12 -36.5t22.5 -28q5 -4 25.5 -20.5t28.5 -23.5t26.5 -25t27 -30.5
t21.5 -33.5t19 -40.5t11 -46t5 -55.5q0 -164 -138 -264t-372 -100q-51 0 -101 6q-31 3 -43 -12l-37 -39q-14 -17 -1.5 -31t42.5 -16l490 -4q55 1 97 -4.5t84 -21.5t64.5 -50.5t22.5 -87.5q0 -92 -67.5 -181t-172.5 -152.5t-236 -102.5t-255 -39zM291 -164q0 -55 86 -84
t201 -31q149 -2 234 24.5t85 80.5q0 65 -106 72l-373 41q-42 3 -66 -21l-39 -37q-22 -22 -22 -45zM424 766q0 -97 21 -190t61.5 -156.5t91.5 -63.5q49 0 70.5 40.5t21.5 127.5q0 62 -11 131t-31 134t-55 107t-77 42q-47 0 -69.5 -39.5t-22.5 -132.5z" />
    <glyph glyph-name="h" unicode="h" horiz-adv-x="1349" 
d="M49 0q-16 0 -24.5 15.5t-8.5 27.5q0 11 22 22t49 18.5t49 22t22 33.5v1037q0 19 -22 34t-49 23t-49 19t-22 24q0 34 33 39q157 22 240 45t160 78q33 26 57 26q22 0 22 -30v-670q0 -12 9 -13.5t18 7.5q5 5 28.5 37t52 62.5t69.5 64t99 54.5t122 21q119 0 193.5 -71.5
t74.5 -220.5v-566q0 -19 21.5 -33.5t48 -22t48 -18.5t21.5 -22q0 -12 -8.5 -27.5t-24.5 -15.5h-559q-15 0 -23.5 15.5t-8.5 27.5q0 11 18 21.5t39 18.5t39 22.5t18 33.5v502q0 69 -28.5 104t-79.5 35q-66 0 -126.5 -55t-60.5 -135v-451q0 -19 18 -33.5t39.5 -22.5
t39.5 -18.5t18 -21.5t-9 -27t-24 -16h-561z" />
    <glyph glyph-name="i" unicode="i" 
d="M336 1042q-53 0 -100 17t-82 60.5t-35 107.5q0 86 58 145.5t153 59.5q83 0 150 -46.5t67 -138.5q0 -87 -58 -146t-153 -59zM16 43q0 11 22 22t49 18.5t49 22t22 33.5v594q0 19 -22 34t-49 22.5t-49 18.5t-22 23q0 36 33 41q19 3 81.5 12t78 11.5t59.5 11t64.5 16t52 20
t61.5 28.5q37 22 60 22q9 0 15.5 -7t6.5 -21v-826q0 -19 22 -33.5t48 -22t48 -18.5t22 -22q0 -12 -8.5 -27.5t-24.5 -15.5h-586q-16 0 -24.5 15.5t-8.5 27.5z" />
    <glyph glyph-name="j" unicode="j" 
d="M336 1049q-39 0 -75.5 10t-69 30.5t-52.5 57t-20 84.5q0 88 57.5 147.5t153.5 59.5q83 0 150 -46.5t67 -138.5q0 -87 -58 -145.5t-153 -58.5zM-29 -367q0 8 19.5 29.5t46.5 57.5t54.5 88t47 140.5t19.5 194.5v574q0 19 -22 34t-49 23t-49 19t-22 22q0 36 31 43
q36 8 100 21t90 19t68 17.5t74 24.5t67 31q2 1 14.5 7t24 10.5t19.5 4.5q24 0 24 -28v-762q0 -100 -21.5 -185t-56 -144.5t-81 -107.5t-94.5 -77t-98.5 -48t-90 -26.5t-72.5 -7.5q-43 0 -43 26z" />
    <glyph glyph-name="k" unicode="k" horiz-adv-x="1390" 
d="M49 0q-16 0 -24.5 15.5t-8.5 27.5q0 11 22 22t49 18.5t49 22t22 33.5v1037q0 19 -22 34t-49 23t-49 19t-22 24q0 11 7.5 23.5t25.5 15.5q157 22 240 45t160 78q33 26 57 26q22 0 22 -30v-1295q0 -19 20 -33.5t44.5 -22t44.5 -18.5t20 -22q0 -12 -8.5 -27.5t-23.5 -15.5
h-576zM590 481q-21 30 12 56l234 161q30 21 16 45l-76 113q-11 15 -32 25.5t-39 15t-32 13t-14 20.5q0 10 8 25.5t23 15.5h586q25 0 27 -17t-21 -32l-367 -256q-19 -12 -4 -33l355 -498q18 -27 61.5 -43t76 -26t32.5 -23q0 -12 -8.5 -27.5t-24.5 -15.5h-653q-12 0 -22.5 16
t-10.5 27t14.5 18t31.5 10.5t31.5 15t14.5 30.5v43q0 40 -18 63z" />
    <glyph glyph-name="l" unicode="l" 
d="M49 0q-16 0 -24.5 15.5t-8.5 27.5q0 11 22 22t49 18.5t49 22t22 33.5v1037q0 19 -22 34t-49 23t-49 19t-22 24q0 11 7.5 23.5t25.5 15.5q157 22 240 45t160 78q33 26 57 26q22 0 22 -30v-1295q0 -19 22 -33.5t48 -22t48 -18.5t22 -22q0 -12 -8.5 -27.5t-24.5 -15.5h-586z
" />
    <glyph glyph-name="m" unicode="m" horiz-adv-x="1974" 
d="M49 0q-16 0 -24.5 15.5t-8.5 27.5q0 11 22 21.5t49 18.5t49 22.5t22 33.5v592q0 19 -22 34t-49 22.5t-49 18.5t-22 23q0 36 31 41q38 7 106.5 17.5t101.5 17t82 21t93 35.5q45 22 59 22q25 0 25 -27v-184q0 -12 7.5 -14t19.5 8q13 11 49.5 54t71 79t98 67t135.5 31
q36 0 67 -7t55 -19t44 -27t34.5 -33.5t25 -35t18.5 -35.5t12.5 -30.5t8 -24t3.5 -13.5q5 -20 27 2q1 2 20 27.5t35 45.5t49 50t67 50t83 35t102 15q121 0 196 -71.5t75 -220.5v-566q0 -19 22 -33.5t48.5 -22.5t48.5 -18.5t22 -21.5t-9 -27t-24 -16h-553q-15 0 -24 16t-9 27
q0 13 27.5 26t54.5 29.5t27 40.5v502q0 61 -26 101t-83 40q-59 0 -113.5 -54t-54.5 -134v-455q0 -19 17 -33.5t37.5 -22.5t37.5 -18.5t17 -21.5t-9 -27t-24 -16h-520q-15 0 -23 15.5t-8 27.5q0 13 27 26t53.5 29.5t26.5 40.5v504q0 139 -111 139q-66 0 -115 -53.5
t-49 -134.5v-455q0 -19 16.5 -33.5t37 -22.5t37 -18.5t16.5 -21.5q0 -12 -8.5 -27.5t-24.5 -15.5h-553z" />
    <glyph glyph-name="n" unicode="n" horiz-adv-x="1349" 
d="M49 0q-16 0 -24.5 15.5t-8.5 27.5q0 11 22 22t49 18.5t49 22t22 33.5v592q0 19 -22 34t-49 22.5t-49 18.5t-22 23q0 13 7 25.5t24 15.5q33 6 102.5 17t102 17t83 21t95.5 36q50 22 59 22q25 0 25 -27v-192q0 -10 8.5 -13.5t20.5 7.5q3 3 30.5 36.5t58 63t75 64t103 55
t120.5 20.5q115 0 189.5 -71.5t74.5 -220.5v-566q0 -19 21.5 -33.5t48 -22t48 -18.5t21.5 -22q0 -12 -8.5 -27.5t-24.5 -15.5h-559q-15 0 -23.5 15.5t-8.5 27.5q0 11 18 21.5t39 18.5t39 22.5t18 33.5v502q0 141 -108 141q-65 0 -126 -56t-61 -136v-451q0 -19 18 -33.5
t39.5 -22.5t39.5 -18.5t18 -21.5t-9 -27t-24 -16h-561z" />
    <glyph glyph-name="o" unicode="o" horiz-adv-x="1200" 
d="M604 -31q-79 0 -157 16t-154 53t-134 92t-94 139.5t-36 187.5q0 108 39.5 205.5t110.5 172t179.5 118.5t237.5 44q79 0 156.5 -15.5t154.5 -52t134.5 -90.5t93.5 -138t36 -187q0 -109 -39.5 -207.5t-110.5 -173.5t-179.5 -119.5t-237.5 -44.5zM416 715
q0 -144 29.5 -295.5t89 -263t133.5 -111.5q65 0 90.5 53t25.5 156q0 146 -29.5 297.5t-89 263t-133.5 111.5q-65 0 -90.5 -53.5t-25.5 -157.5z" />
    <glyph glyph-name="p" unicode="p" horiz-adv-x="1277" 
d="M49 -307q-16 0 -24.5 15.5t-8.5 27.5q0 11 22 21t49 18t49 23t22 34v899q0 19 -22 34t-49 22.5t-49 18.5t-22 23q0 35 29 43q28 4 95.5 14.5t89 14.5t65 13.5t72.5 20.5t61 26q12 5 23.5 10t16 7t9.5 3.5t10 1.5q10 0 17.5 -7.5t7.5 -21.5l2 -135q0 -39 29 -24
q18 7 39.5 31t45.5 52t56 55.5t84 45.5t117 18q70 0 131 -23t111 -71t79 -132t29 -196q0 -162 -56 -299t-163.5 -221t-245.5 -84q-59 0 -106.5 17.5t-70 38t-41.5 38t-28 17.5q-12 0 -12 -21v-229q0 -24 46 -41t92 -29.5t46 -27.5q0 -11 -8.5 -26t-23.5 -15h-615zM528 434
q0 -65 8.5 -124.5t27.5 -114t54.5 -87t83.5 -32.5q69 0 107.5 62.5t38.5 183.5q0 68 -12 143t-36.5 147t-68.5 119t-100 47q-50 0 -76.5 -31t-26.5 -53v-260z" />
    <glyph glyph-name="q" unicode="q" horiz-adv-x="1269" 
d="M842 -328q-27 -11 -49.5 1.5t-22.5 33.5l-8 537q0 14 -8 14q-11 0 -22 -29t-29 -70t-47.5 -82.5t-90 -70.5t-143.5 -29q-178 0 -278.5 117.5t-100.5 313.5q0 94 22.5 180.5t69.5 161t112.5 129.5t156.5 86.5t198 31.5q141 0 322.5 -42t273.5 -83q29 -13 29 -47
q0 -12 -17 -22t-37.5 -17t-37.5 -22.5t-17 -36.5v-801q0 -19 22 -34t49 -23t49 -19t22 -22q0 -12 -11 -26.5t-28 -18.5q-171 -35 -225.5 -50.5t-153.5 -60.5zM434 455q0 -242 154 -242q162 0 162 322v296q0 35 -23.5 62t-73.5 27q-59 0 -104 -49t-68.5 -124t-35 -150
t-11.5 -142z" />
    <glyph glyph-name="r" unicode="r" horiz-adv-x="1069" 
d="M49 0q-16 0 -24.5 15.5t-8.5 27.5q0 11 22 22t49 18.5t49 22t22 33.5v594q0 19 -22 33.5t-49 22t-49 18.5t-22 24t7 25.5t24 15.5q30 5 97.5 15.5t91.5 16t70 20.5t93 39q45 22 60 22q19 0 24 -29l39 -184q1 -12 9.5 -12.5t17.5 8.5q5 8 21.5 37.5t29 50t37.5 49.5t50 47
t63 31.5t81 13.5q106 0 162 -65.5t56 -167.5q0 -87 -45.5 -134.5t-129.5 -47.5q-46 0 -84 15.5t-62 37t-44 43.5t-39 37.5t-37 15.5q-35 0 -57.5 -42.5t-22.5 -90.5v-459q0 -23 45 -40t90.5 -30t45.5 -28q0 -11 -8.5 -26t-24.5 -15h-627z" />
    <glyph glyph-name="s" unicode="s" horiz-adv-x="1048" 
d="M457 -31q-91 0 -187 22.5t-165.5 66.5t-69.5 96q0 49 48.5 116.5t88.5 67.5q20 0 44 -20.5t47 -51.5t54.5 -67.5t64 -67.5t78.5 -51.5t95 -20.5q62 0 89.5 27t27.5 70t-32 75t-82.5 53t-112 40t-123 43t-112 55t-82.5 84t-32 123q0 161 144 264.5t372 103.5
q44 0 89.5 -4.5t102.5 -17t92.5 -41t35.5 -70.5q0 -48 -35 -115t-78 -67q-23 0 -51 23.5t-58 57t-64.5 67.5t-81.5 57.5t-97 23.5q-88 0 -88 -73q0 -47 33.5 -82t86.5 -58t117.5 -43.5t129 -44.5t117.5 -54.5t86.5 -80.5t33.5 -115q0 -69 -41 -139t-110 -125.5t-168 -91
t-207 -35.5z" />
    <glyph glyph-name="t" unicode="t" horiz-adv-x="878" 
d="M436 -29q-59 0 -106 12.5t-76.5 30.5t-51.5 46.5t-32.5 53t-16.5 58.5t-7 53.5t-1 46.5v463q0 19 -22 33.5t-48.5 22t-48.5 18t-22 22.5q0 29 31 41q46 18 92 47.5t78 54.5t73 67.5t58 62.5t54 65.5t42 51.5q17 20 35 28t29.5 1.5t11.5 -25.5v-217q0 -37 39 -37h248
q32 0 24 -35l-20 -92q-4 -25 -29 -25h-219q-35 0 -35 -39v-454q0 -22 3 -37.5t12.5 -32t30.5 -25t54 -8.5q82 0 170 45q40 19 52 19q28 0 28 -27q0 -48 -33.5 -99t-89.5 -93t-137.5 -69.5t-169.5 -27.5z" />
    <glyph glyph-name="u" unicode="u" horiz-adv-x="1335" 
d="M410 -29q-119 0 -188.5 71.5t-69.5 221.5v471q0 19 -22 33.5t-49 22t-49 18t-22 22.5t8 25t27 16q17 2 68 8.5t79 11t72.5 13.5t85 23t80.5 33q49 24 68 24q22 0 22 -29v-557q0 -33 5 -64t18.5 -65t43 -54.5t72.5 -20.5q61 0 105.5 46t44.5 101v393q0 19 -22 33.5
t-48.5 22t-48.5 18t-22 22.5q0 11 8 24.5t24 16.5q18 3 80.5 11t100.5 14.5t97 23t109 40.5q52 24 68 24q23 0 23 -29v-817q0 -19 22 -33.5t48.5 -22t48.5 -18.5t22 -22t-9 -27t-24 -16h-387q-51 0 -59 49l-17 135q-2 10 -9 12.5t-19 -6.5q-2 -2 -27 -29t-44 -46t-57 -48.5
t-73.5 -48t-84.5 -33t-99 -14.5z" />
    <glyph glyph-name="v" unicode="v" horiz-adv-x="1226" 
d="M117 852q-10 17 -43.5 29.5t-60.5 22t-27 22.5t8 29t24 16h580q15 0 24 -16t9 -27t-20 -21.5t-42.5 -18t-36 -22t-2.5 -32.5l207 -388q6 -12 18.5 -12t20.5 12l111 203q23 41 2 78l-70 125q-10 18 -69.5 38.5t-59.5 37.5q0 11 9 27t24 16h512q15 0 24 -16t9 -29
t-28 -23.5t-64.5 -27t-51.5 -41.5l-462 -822q-14 -24 -40 -24t-38 24z" />
    <glyph glyph-name="w" unicode="w" horiz-adv-x="1798" 
d="M117 852q-10 17 -43 29.5t-60.5 22t-27.5 22.5t8 29t24 16h533q15 0 24 -16t9 -27t-15.5 -21t-31.5 -17.5t-26 -22t1 -33.5l193 -388q6 -14 21.5 -14t23.5 14l79 160q22 43 0 86l-79 160q-8 17 -38.5 29t-55.5 22t-25 25q0 10 9 26.5t24 16.5h516q13 0 22.5 -16t9.5 -27
q0 -10 -16.5 -20.5t-34.5 -18.5t-29 -23t1 -35l192 -380q8 -14 22.5 -13.5t20.5 11.5l92 174q21 34 0 82l-69 147q-10 19 -70.5 39t-60.5 37q0 12 8.5 27.5t23.5 15.5h514q16 0 24.5 -16.5t8.5 -28.5t-28 -22.5t-64 -27t-51 -42.5l-463 -822q-13 -23 -40 -24t-40 24
l-223 455q-8 18 -26.5 18t-29.5 -18l-262 -455q-14 -24 -41 -24t-41 24z" />
    <glyph glyph-name="x" unicode="x" horiz-adv-x="1359" 
d="M39 0q-15 0 -24 16t-9 27q0 19 39.5 29.5t93.5 26.5t78 44l254 277q31 39 0 78l-285 354q-12 16 -53.5 28t-75.5 22.5t-34 25.5q0 12 8.5 27.5t23.5 15.5h647q15 0 24 -15.5t9 -25.5q0 -15 -34 -29t-58.5 -30t-7.5 -37l135 -164q20 -24 39 -2l86 92q45 39 23 61l-31 37
q-11 13 -40 26t-51 24t-22 22q0 10 9 25.5t24 15.5h500q15 0 23.5 -16.5t8.5 -26.5q0 -18 -37.5 -27l-87.5 -21t-71 -36l-242 -271q-14 -15 -14.5 -35.5t14.5 -39.5l295 -365q18 -23 58.5 -37.5t70 -25.5t29.5 -27q0 -12 -8.5 -27.5t-24.5 -15.5h-639q-15 0 -24 15.5
t-9 25.5q0 14 36 28t62.5 30.5t8.5 37.5l-152 185q-7 8 -10.5 11t-11.5 1.5t-17 -12.5l-96 -107q-29 -33 -6 -59l49 -60q13 -15 38 -23t42.5 -14t17.5 -16q0 -12 -8 -27.5t-24 -15.5h-539z" />
    <glyph glyph-name="y" unicode="y" horiz-adv-x="1247" 
d="M285 -334q-91 0 -155 47t-64 131q0 82 51 133.5t141 51.5q35 0 64 -11t47.5 -26.5t35 -31.5t34 -27t36.5 -11q59 0 99 62.5t16 101.5l-457 766q-10 17 -47.5 29.5t-68.5 22t-31 22.5t8 29t24 16h598q15 0 24 -16t9 -27q0 -14 -33 -27t-58 -29t-11 -38l217 -381
q10 -13 21.5 -12t19.5 12l106 204q21 41 2 78l-63 117q-10 18 -70.5 38.5t-60.5 37.5q0 11 9 27t24 16h503q16 0 24.5 -16t8.5 -29q0 -12 -28 -22.5t-64 -27t-51 -42.5l-426 -766q-3 -6 -27.5 -50t-35.5 -63.5t-40.5 -64t-50.5 -68.5t-56 -58.5t-66.5 -52.5t-73 -31.5
t-84.5 -13.5z" />
    <glyph glyph-name="z" unicode="z" horiz-adv-x="1060" 
d="M80 0q-22 0 -37.5 21.5t0.5 46.5l477 770q8 12 1.5 25.5t-21.5 13.5h-105q-33 0 -57 -27l-191 -223q-24 -26 -53 -15t-24 37l49 283q4 19 14.5 29t38.5 10h768q25 0 38 -20t-1 -46l-455 -729q-6 -11 1.5 -24t21.5 -13h117q23 0 36.5 5.5t32.5 27.5l223 252
q17 17 36.5 17.5t31 -11.5t8.5 -29l-80 -360q-9 -41 -43 -41h-827z" />
    <glyph glyph-name="braceleft" unicode="{" horiz-adv-x="768" 
d="M510 -283q-72 0 -120 14t-83 49.5t-51 97.5t-16 157v280q0 125 -99 174l-59 27q-39 20 -39 51v8q0 32 39 52l59 26q99 46 99 174v281q0 181 61 249t209 68h182q15 0 24 -13t9 -23q0 -11 -31 -24.5t-67.5 -26t-67.5 -39.5t-31 -62v-395q0 -38 -4 -67.5t-15 -52t-20.5 -38
t-30 -31t-33 -23.5t-40 -23.5t-41.5 -24.5q-8 -4 -8 -10t8 -11q13 -8 37.5 -22t35.5 -21t30 -20.5t28.5 -24.5t21.5 -29t17.5 -37.5t9.5 -46.5t4 -59v-395q0 -35 31 -62t67.5 -39.5t67.5 -26t31 -24.5t-9 -24t-24 -13h-182z" />
    <glyph glyph-name="bar" unicode="|" horiz-adv-x="1001" 
d="M453 -285q-19 0 -31 12t-12 31v1715q0 19 12 31t31 12h96q19 0 32 -12t13 -31v-1715q0 -19 -13 -31t-32 -12h-96z" />
    <glyph glyph-name="braceright" unicode="}" horiz-adv-x="768" 
d="M76 -283q-15 0 -24 13t-9 24t31 24.5t67.5 26t67.5 39.5t31 62v395q0 32 4 59t9.5 46.5t17.5 37.5t21.5 29t28.5 24.5t30 20.5t35.5 21t37.5 22q8 5 8 11t-8 10q-14 9 -41.5 24.5t-40 23.5t-33 23.5t-30 31t-20.5 38t-15 52t-4 67.5v395q0 35 -31 62t-67.5 39.5t-67.5 26
t-31 24.5q0 10 9 23t24 13h182q148 0 209 -68t61 -249v-281q0 -128 99 -174l59 -26q39 -20 39 -52v-8q0 -31 -39 -51l-59 -27q-99 -49 -99 -174v-280q0 -95 -16 -157t-51 -97.5t-83 -49.5t-120 -14h-182z" />
    <glyph glyph-name="asciitilde" unicode="~" horiz-adv-x="1269" 
d="M858 348q-55 0 -119 23.5t-111 51.5t-97 51.5t-80 23.5q-84 0 -93 -103q-2 -19 -14.5 -30.5t-32.5 -10.5l-116 4q-19 0 -30.5 14t-10.5 34q2 45 11.5 88t30 84t49 71.5t72.5 49t97 18.5q54 0 117.5 -23t110.5 -51t97 -51t80 -23q82 0 94 101q0 20 13 31.5t32 11.5l117 -4
q20 -1 31.5 -13.5t11.5 -31.5q-3 -60 -19 -113.5t-45.5 -100.5t-80 -74.5t-115.5 -27.5z" />
    <glyph glyph-name="exclamdown" unicode="&#xa1;" horiz-adv-x="710" 
d="M313 555q30 0 44 -19.5t22 -50.5q40 -163 85.5 -306.5t64 -209.5t18.5 -121q0 -138 -57 -202t-177 -64q-121 0 -177 64t-56 204q0 54 19 119.5t64 209t85 308.5q6 21 10 32t18.5 23.5t36.5 12.5zM100 862q0 89 66.5 139t148.5 50q97 0 154 -60.5t57 -148.5
q0 -87 -67.5 -137t-149.5 -50q-95 0 -152 60t-57 147z" />
    <glyph glyph-name="cent" unicode="&#xa2;" horiz-adv-x="1026" 
d="M449 0q-37 0 -37 37v110q0 27 -23 35q-147 32 -236.5 129t-89.5 250q0 149 78 258t209 158h-2l33 10q18 6 24.5 13t6.5 24v119q0 37 37 37h118q37 0 37 -37v-109q0 -16 5 -22.5t26 -10.5l8 -2q109 -24 183.5 -85.5t74.5 -151.5q0 -32 -20.5 -53t-63.5 -21q-44 0 -78 13
t-55.5 33.5t-39 45.5t-32.5 50t-32 45.5t-42.5 33.5t-58.5 13q-98 0 -98 -170q0 -328 260 -328q61 0 111 18.5t75.5 40t50 40t40.5 18.5q26 0 26 -43q0 -92 -90.5 -192.5t-232.5 -129.5q-17 -6 -17 -31v-108q0 -37 -37 -37h-118z" />
    <glyph glyph-name="sterling" unicode="&#xa3;" horiz-adv-x="1249" 
d="M135 0q-18 0 -33 11.5t-17.5 25t5.5 22.5l119 93q51 33 51 118q0 31 -7.5 79.5t-19.5 66.5q-17 28 -47 28h-98q-14 0 -23.5 9t-9.5 24v86q0 13 9.5 22t23.5 9h76q27 0 22 29q-22 74 -22 131q0 96 34.5 175t91 130t131 86t152 50t156.5 15q99 0 178 -26t126 -68.5t72 -93
t25 -104.5q0 -90 -58.5 -149.5t-145.5 -59.5q-72 0 -125 41t-53 120q0 34 10.5 61.5t26 45t31 33t26 31.5t10.5 32q0 45 -80 45q-92 0 -160.5 -64t-68.5 -188q0 -127 69.5 -199.5t163.5 -72.5h109q13 0 22 -9t8 -22l-6 -86q0 -33 -30 -33h-215q-17 0 -26 -11.5t-9 -29.5
v-167q0 -50 41 -50h147q31 0 64 33l235 250q28 29 51.5 22.5t16.5 -47.5l-60 -391q-3 -28 -15 -40.5t-44 -12.5h-930z" />
    <glyph glyph-name="currency" unicode="&#xa4;" horiz-adv-x="1163" 
d="M131 213q-15 17 4 39l76 74q10 14 9 21t-9 22l-16 30l-2 4q-39 80 -39 175q0 110 51 198l8 15q8 13 10.5 18t1.5 13.5t-10 17.5l-78 80q-18 22 -4 36l78 78q18 15 37 -4l88 -86q9 -9 17 -10.5t12 0t20 8.5l27 12v-2q84 33 168 33q86 0 170 -33v2l16 -8l22 -10
q21 -10 35 4l92 92q21 22 39 4l78 -78q16 -16 -4 -38l-82 -82q-15 -15 -6 -37q68 -100 68 -223q0 -110 -54 -201l-2 -4q-10 -17 -11 -25t11 -24l76 -74q20 -20 4 -37l-78 -78q-17 -17 -39 2l-79 82q-4 4 -8.5 6.5t-7 4t-8 0t-7 -2t-9.5 -4t-10 -4.5q-96 -49 -206 -49
q-123 0 -220 57q-18 6 -32 -8l-80 -80q-20 -23 -39 -4zM393 578q0 -87 52 -139t135 -52q84 0 135 52t51 139q0 88 -51 140t-135 52q-83 0 -135 -52t-52 -140z" />
    <glyph glyph-name="yen" unicode="&#xa5;" horiz-adv-x="1349" 
d="M330 0q-16 0 -24.5 19.5t-8.5 33.5t47.5 30t95 36.5t47.5 44.5v102h-208q-14 0 -22.5 8t-8.5 21v74q0 28 31 28h208v86q0 23 -2 33h-206q-14 0 -22.5 8t-8.5 21v73q0 14 9 22.5t22 8.5h133l-271 402q-11 17 -46.5 29.5t-64 22.5t-28.5 23t9.5 33.5t25.5 20.5h663
q16 0 24.5 -20t8.5 -32t-25.5 -24t-52.5 -21.5t-44 -28t1 -44.5l170 -271q10 -15 22 -15t21 15l105 152q28 43 28 58q1 12 -6 22l-47 69q-10 17 -30 30t-37 19.5t-30 16.5t-13 22t8.5 32t23.5 20h488q15 0 24 -20.5t9 -33.5q0 -14 -23.5 -24.5t-54.5 -17.5t-66 -25t-53 -43
l-248 -365q0 -2 -2 -2h176q13 0 22 -8.5t9 -22.5v-73q0 -13 -8.5 -21t-22.5 -8h-203v-119h203q31 0 31 -28v-74q0 -13 -8.5 -21t-22.5 -8h-203v-102q0 -24 48 -44.5t96.5 -36.5t48.5 -30q0 -13 -9 -33t-24 -20h-704z" />
    <glyph glyph-name="brokenbar" unicode="&#xa6;" horiz-adv-x="1001" 
d="M453 719q-19 0 -31 12t-12 31v711q0 19 12 31t31 12h96q19 0 32 -12t13 -31v-711q0 -19 -13 -31t-32 -12h-96zM410 -242v711q0 19 12 31t31 12h96q19 0 32 -12t13 -31v-711q0 -19 -13 -31t-32 -12h-96q-19 0 -31 12t-12 31z" />
    <glyph glyph-name="section" unicode="&#xa7;" horiz-adv-x="1062" 
d="M424 -225q-63 0 -121.5 17t-98.5 52t-40 80q0 33 27.5 58.5t115.5 78.5q17 11 26 9.5t19 -21.5q8 -14 24 -47.5t28.5 -57t30.5 -50t39.5 -40.5t45.5 -14q28 0 48 19t20 51q0 39 -28.5 80.5t-74 82t-100.5 86.5t-110 103t-100.5 120.5t-74 149.5t-28.5 181
q0 122 49.5 238.5t129 201.5t184 136.5t210.5 51.5q50 0 93 -8.5t77.5 -34t34.5 -63.5q0 -96 -127 -170q-36 -21 -45 12q-49 199 -133 199q-30 0 -49 -22t-19 -56q0 -39 28.5 -79t73.5 -77t100 -78.5t110 -94t100 -113t73.5 -145t28.5 -181.5q0 -171 -80.5 -323t-212 -242
t-274.5 -90zM236 897q3 -79 32 -157.5t73 -143.5t96 -128.5t103.5 -123.5t93.5 -117t68.5 -119.5t26.5 -121.5q0 -14 10 -14.5t19 12.5q69 95 69 223q0 88 -27.5 170.5t-71 147.5t-96 127t-105.5 119.5t-96.5 114t-71 121.5t-27.5 132q0 8 -5 11t-12 0t-12 -9
q-73 -110 -67 -244z" />
    <glyph glyph-name="dieresis" unicode="&#xa8;" horiz-adv-x="948" 
d="M672 1114q-51 0 -89 36t-38 87t38 88t89 37q50 0 86.5 -37t36.5 -88t-36.5 -87t-86.5 -36zM154 1237q0 51 35.5 88t86.5 37t89 -37t38 -88t-38 -87t-89 -36t-86.5 36t-35.5 87z" />
    <glyph glyph-name="copyright" unicode="&#xa9;" horiz-adv-x="1699" 
d="M852 -223q-173 0 -321 61.5t-249 167.5t-157.5 249t-56.5 304t56.5 304t157.5 249t249 167.5t321 61.5q228 0 407.5 -105.5t276 -283t96.5 -393.5t-96.5 -393.5t-276 -283t-407.5 -105.5zM184 559q0 -197 85.5 -353.5t238 -243.5t344.5 -87q194 0 345.5 88t235 243.5
t83.5 352.5t-83.5 352.5t-235 243.5t-345.5 88q-192 0 -344.5 -87t-238 -243.5t-85.5 -353.5zM395 543q0 135 54 245.5t162 179t253 68.5q99 0 195 -31t137 -65q18 -14 18.5 -25.5t-8.5 -25.5l-143 -242q-7 -11 -21.5 -9.5t-21.5 15.5l-121 238q-34 70 -86 70
q-58 0 -101.5 -64t-43.5 -197q0 -89 20.5 -165t61.5 -135t107.5 -92.5t152.5 -33.5q48 0 87.5 11.5t59.5 25.5t39 25.5t31 11.5q20 0 20 -20q0 -78 -105.5 -153t-267.5 -75q-93 0 -177.5 27.5t-152.5 80.5t-108.5 139.5t-40.5 195.5z" />
    <glyph glyph-name="ordfeminine" unicode="&#xaa;" horiz-adv-x="978" 
d="M281 612q-91 0 -146 47.5t-55 143.5q0 57 36 87t99 48l262 86q27 9 27 39v123q0 94 -103 94q-47 0 -47 -27q0 -4 13.5 -36.5t13.5 -55.5q0 -66 -40 -104.5t-112 -38.5q-49 0 -76.5 26.5t-27.5 73.5q0 101 106 165.5t265 64.5q75 0 130 -18t83.5 -43t45 -62.5t20 -65.5
t3.5 -63v-240q0 -37 25 -37q17 0 39 10.5t35 10.5q24 0 24 -31q0 -74 -86 -137.5t-186 -63.5q-33 0 -54 10.5t-26.5 20t-9.5 23.5l-13 45q-3 10 -10 10t-26.5 -16.5t-43.5 -36t-69 -36t-96 -16.5zM262 414v69q0 12 8.5 20.5t20.5 8.5h377q12 0 21 -8.5t9 -20.5v-69
q0 -12 -9 -20.5t-21 -8.5h-377q-12 0 -20.5 9t-8.5 20zM336 848q0 -50 21 -79.5t65 -29.5q37 0 72 29q10 10 10 27v145q0 7 -7.5 12.5t-21.5 1.5l-90 -32q-26 -8 -37.5 -23t-11.5 -51z" />
    <glyph glyph-name="guillemotleft" unicode="&#xab;" horiz-adv-x="1366" 
d="M137 528q-46 46 -2 86l424 394q36 35 76 29q33 -4 28 -36q-2 -8 -6 -18l-186 -373q-18 -41 0 -75l186 -373q20 -43 -14 -53t-73 18q-6 3 -11 8zM698 614l424 394q36 34 75 29q33 -4 30 -34q-1 -9 -6 -20l-187 -373q-18 -41 0 -75l187 -373q20 -43 -14 -53t-74 17
q-6 4 -11 9l-422 393q-46 46 -2 86z" />
    <glyph glyph-name="logicalnot" unicode="&#xac;" horiz-adv-x="1249" 
d="M889 47q-20 0 -31.5 12t-11.5 31v264q0 19 -12 31t-31 12h-606q-20 0 -31.5 12t-11.5 31v144q0 19 11.5 31t31.5 12h856q19 0 31 -12t12 -31v-494q0 -19 -12 -31t-31 -12h-164z" />
    <glyph glyph-name="uni00AD" unicode="&#xad;" horiz-adv-x="907" 
d="M96 483q-45 0 -39 47l15 103q6 39 45 39h694q43 0 37 -45l-14 -105q-3 -39 -43 -39h-695z" />
    <glyph glyph-name="registered" unicode="&#xae;" horiz-adv-x="1243" 
d="M623 414q-160 0 -289.5 75t-202 203t-72.5 281q0 154 72.5 282.5t202 203.5t289.5 75q158 0 286.5 -75t200.5 -203.5t72 -282.5q0 -153 -72 -281t-200.5 -203t-286.5 -75zM168 973q0 -210 126.5 -339.5t330.5 -129.5q201 0 325.5 129.5t124.5 339.5q0 211 -124.5 341
t-325.5 130q-204 0 -330.5 -130t-126.5 -341zM330 725q0 5 30.5 23.5t30.5 33.5v387q0 14 -30.5 32t-30.5 24q0 30 22 30h322q81 0 133.5 -30t52.5 -92q0 -81 -108 -146q-10 -7 10 -24q27 -18 73.5 -101.5t59.5 -97.5q8 -11 20.5 -18t19.5 -11t7 -10q0 -12 -8 -22.5
t-21 -10.5h-118q-24 0 -52 34.5t-49.5 77.5t-49 87t-48.5 59q-16 11 -14 23t16 20q30 16 53 45t23 64q0 49 -28.5 75.5t-67.5 26.5q-29 0 -29 -22v-402q0 -13 34.5 -30t34.5 -25q0 -13 -6.5 -23t-17.5 -10h-240q-11 0 -17.5 10t-6.5 23z" />
    <glyph glyph-name="macron" unicode="&#xaf;" horiz-adv-x="845" 
d="M186 1141q-38 0 -32 39l10 84q1 13 11.5 21.5t23.5 8.5h463q38 0 32 -37l-12 -83q-5 -33 -35 -33h-461z" />
    <glyph glyph-name="degree" unicode="&#xb0;" horiz-adv-x="858" 
d="M430 807q-146 0 -241 94.5t-95 231.5q0 134 95 227.5t241 93.5q145 0 238.5 -93t93.5 -228q0 -137 -93.5 -231.5t-238.5 -94.5zM262 1135q0 -81 47 -131t121 -50t119 49.5t45 131.5q0 74 -45.5 123t-118.5 49t-120.5 -49t-47.5 -123z" />
    <glyph glyph-name="plusminus" unicode="&#xb1;" horiz-adv-x="1251" 
d="M551 281q-18 0 -29.5 11.5t-11.5 29.5v190q0 19 -12 30t-31 11h-272q-18 0 -29.5 11.5t-11.5 29.5v115q0 19 11 31t30 12h272q19 0 31 11t12 30v188q0 19 11 31t30 12h145q19 0 31 -12t12 -31v-188q0 -19 11 -30t30 -11h275q19 0 30 -12t11 -31v-115q0 -18 -11.5 -29.5
t-29.5 -11.5h-275q-19 0 -30 -11t-11 -30v-190q0 -17 -12 -29t-31 -12h-145zM154 43v109q0 19 11 31t30 12h862q19 0 31 -12t12 -31v-109q0 -19 -12 -31t-31 -12h-862q-19 0 -30 12t-11 31z" />
    <glyph glyph-name="uni00B2" unicode="&#xb2;" horiz-adv-x="874" 
d="M106 684q-33 0 -49 24t4 46l316 329q50 51 69 87.5t19 93.5q0 145 -119 145q-45 0 -80.5 -17.5t-63 -35.5t-52.5 -19t-38.5 11.5t-13.5 35.5q0 63 103 114.5t237 51.5q149 0 231.5 -63t82.5 -180q0 -48 -15.5 -90t-46.5 -77t-58.5 -59t-70.5 -55l-186 -129
q-14 -11 -10 -22t16 -11h186q22 0 51 23l130 117q32 28 57 18t16 -47l-57 -242q-6 -27 -17.5 -38t-39.5 -11h-601z" />
    <glyph glyph-name="uni00B3" unicode="&#xb3;" horiz-adv-x="870" 
d="M340 664q-110 0 -199.5 52.5t-89.5 127.5q0 51 36 82.5t95 31.5q40 0 72 -21.5t52 -52t37.5 -61t38 -52t44.5 -21.5q38 0 81.5 56t43.5 134q0 73 -55 108t-138 35q-25 0 -53 -3t-37 -3q-33 0 -49 10.5t-16 36.5q0 22 13 38t44 36q36 22 62 39.5t56 41.5t46 48.5t16 46.5
q0 25 -17.5 39t-49.5 14q-47 0 -118.5 -46t-94.5 -48q-22 0 -36.5 12t-14.5 33q0 39 50 80t130.5 67.5t161.5 26.5q110 0 174.5 -40t64.5 -109q0 -91 -151 -158q-3 -1 -4.5 -6t0.5 -9t8 -3q13 2 31.5 2.5t44.5 -3t51.5 -10.5t51.5 -22.5t45.5 -37t31.5 -55.5t12 -77
q0 -86 -50.5 -157.5t-125.5 -114t-153 -65.5t-142 -23z" />
    <glyph glyph-name="acute" unicode="&#xb4;" horiz-adv-x="737" 
d="M227 1061q-11 -7 -19.5 -7t-13 3t-14.5 12l-20 25q-13 13 12 49l174 227q64 86 133 86q48 0 76.5 -33t28.5 -75q0 -40 -21.5 -69.5t-70.5 -59.5z" />
    <glyph glyph-name="uni00B5" unicode="&#xb5;" horiz-adv-x="1351" 
d="M453 -403q-61 0 -111 16t-83.5 43t-56 63.5t-32.5 76.5t-10 83v905q0 19 -22 34t-49 23t-49 19t-22 23q0 11 8.5 24.5t24.5 16.5q22 3 87 11.5t100.5 14.5t93.5 22.5t110 41.5q52 24 66 24q20 0 20 -30v-602q0 -213 134 -213q61 0 112 46t51 103v442q0 19 -22 34
t-48.5 23t-48.5 19t-22 23q0 11 8.5 24.5t24.5 16.5q22 3 87 11.5t101 14.5t94 22.5t109 41.5q52 24 66 24q22 0 22 -30v-869q0 -19 21.5 -34t48 -23t48 -19t21.5 -22t-8.5 -26t-23.5 -15h-388q-51 0 -59 49l-16 146q-2 11 -10 13.5t-19 -7.5q-27 -29 -97 -70.5t-141 -56.5
q-23 -7 -32 -19.5t-9 -36.5v-77q0 -52 21.5 -126t21.5 -114q0 -104 -122 -104z" />
    <glyph glyph-name="paragraph" unicode="&#xb6;" horiz-adv-x="1146" 
d="M406 -203q-41 0 -41 43v844q0 16 -2.5 25.5t-15 19t-36.5 12.5q-51 8 -90 22t-80.5 44t-64.5 85t-23 132q0 139 79 215t222 76h688q15 0 24 -16t9 -27t-22 -22.5t-48.5 -20t-48.5 -24t-22 -34.5v-1331q0 -43 -43 -43h-139q-43 0 -43 43v1356q0 31 -23 31h-74
q-13 0 -18.5 -7t-5.5 -24v-1356q0 -43 -43 -43h-139z" />
    <glyph glyph-name="periodcentered" unicode="&#xb7;" horiz-adv-x="602" 
d="M299 389q-82 0 -148.5 50t-66.5 139q0 87 57 146.5t152 59.5q83 0 150 -49.5t67 -136.5q0 -88 -57 -148.5t-154 -60.5z" />
    <glyph glyph-name="cedilla" unicode="&#xb8;" horiz-adv-x="829" 
d="M397 -457q-93 0 -168 39t-75 86q0 15 8 30t26 15q17 0 37.5 -16.5t52 -33.5t76.5 -17q43 0 70 23t27 65q0 80 -93 80q-16 0 -35.5 -2t-27.5 -2q-50 0 -37 43l49 147h144l-33 -94h49q96 0 152.5 -37t56.5 -107q0 -88 -80.5 -153.5t-198.5 -65.5z" />
    <glyph glyph-name="uni00B9" unicode="&#xb9;" horiz-adv-x="702" 
d="M102 684q-17 0 -29 12t-12 29q0 11 26.5 22.5t58.5 20.5t58.5 27.5t26.5 40.5v454q0 24 -45 39.5l-90 31t-45 40.5q0 23 39 31q70 10 165 42.5t159 65.5q24 14 41 14q32 0 32 -38v-680q0 -22 24.5 -40.5t53.5 -27.5t53.5 -20.5t24.5 -22.5q0 -17 -12 -29t-29 -12h-500z
" />
    <glyph glyph-name="ordmasculine" unicode="&#xba;" horiz-adv-x="944" 
d="M477 606q-53 0 -105.5 11t-106 37.5t-94 66t-66 101.5t-25.5 139q0 169 108.5 278t278.5 109q52 0 104.5 -11t106 -37.5t94.5 -66t66.5 -102t25.5 -138.5q0 -167 -108.5 -277t-278.5 -110zM254 414v69q0 12 9.5 20.5t21.5 8.5h377q12 0 20 -8.5t8 -20.5v-69
q0 -12 -8 -20.5t-20 -8.5h-377q-12 0 -21.5 8.5t-9.5 20.5zM354 1114q0 -95 20 -193.5t57.5 -168.5t82.5 -70q43 0 59.5 41.5t16.5 116.5q0 96 -20 194.5t-58 169t-84 70.5q-74 0 -74 -160z" />
    <glyph glyph-name="guillemotright" unicode="&#xbb;" horiz-adv-x="1366" 
d="M807 135q-35 -32 -74 -28q-34 3 -31 33q1 10 7 22l186 373q18 34 0 75l-186 373q-19 41 13 52q33 12 72 -16q7 -5 13 -11l424 -394q44 -40 -2 -86zM145 162l187 373q18 34 0 75l-187 373q-19 41 14.5 52t72.5 -17l12 -10l424 -394q44 -40 -2 -86l-422 -393
q-35 -32 -75 -28q-34 4 -30 35q1 9 6 20z" />
    <glyph glyph-name="onequarter" unicode="&#xbc;" horiz-adv-x="1937" 
d="M102 479q-17 0 -29 12t-12 29q0 11 26.5 22.5t58.5 20.5t58.5 27.5t26.5 40.5v454q0 24 -45 39.5l-90 31t-45 40.5q0 23 39 31q70 10 165 42.5t159 65.5q26 15 41 15t23.5 -11t8.5 -28v-680q0 -22 24.5 -40.5t53.5 -27.5t53.5 -20.5t24.5 -22.5q0 -17 -12 -29t-29 -12
h-500zM608 -8l465 1354q9 32 57 32h95q20 0 26.5 -17.5t-0.5 -37.5l-463 -1354q-12 -32 -59 -32h-94q-20 0 -27 17.5t0 37.5zM1087 285q0 26 13 47l375 540q24 32 59 15l117 -70q16 -12 15.5 -26.5t-11.5 -26.5l-371 -389q-9 -11 -5 -20t19 -9h158q10 0 16.5 7t6.5 16v114
q0 12 0.5 17.5t7.5 14t20 13.5q35 12 96.5 39t67.5 29q32 16 39 16q27 0 27 -37v-206q0 -9 6 -16t16 -7h99q18 0 24 -5t4 -19l-10 -84q-3 -25 -29 -25h-88q-9 0 -15.5 -6.5t-6.5 -16.5v-90q0 -17 30.5 -25.5t60.5 -15t30 -18.5q0 -17 -12 -29t-29 -12h-431q-17 0 -28.5 12
t-11.5 29q0 9 30.5 17t61 18t30.5 24v90q0 9 -6 16t-16 7h-299q-44 0 -51 33z" />
    <glyph glyph-name="onehalf" unicode="&#xbd;" horiz-adv-x="1994" 
d="M102 479q-17 0 -29 12t-12 29q0 11 26.5 22.5t58.5 20.5t58.5 27.5t26.5 40.5v454q0 24 -45 39.5l-90 31t-45 40.5q0 23 39 31q70 10 165 42.5t159 65.5q26 15 41 15t23.5 -11t8.5 -28v-680q0 -22 24.5 -40.5t53.5 -27.5t53.5 -20.5t24.5 -22.5q0 -17 -12 -29t-29 -12
h-500zM608 -8l465 1354q9 32 57 32h95q20 0 26.5 -17.5t-0.5 -37.5l-463 -1354q-12 -32 -59 -32h-94q-20 0 -27 17.5t0 37.5zM1182 70l315 329q50 51 69 87.5t19 93.5q0 145 -119 145q-45 0 -80.5 -17.5t-63 -35.5t-52.5 -19q-51 -3 -51 47q0 63 103 114.5t237 51.5
q149 0 231 -62.5t82 -180.5q0 -48 -15.5 -90t-46.5 -77t-58.5 -59t-70.5 -55l-186 -129q-14 -11 -10 -22t16 -11h187q22 0 51 23l129 116q32 28 57.5 18.5t16.5 -46.5l-58 -242q-6 -27 -17.5 -38t-39.5 -11h-600q-33 0 -49 24t4 46z" />
    <glyph glyph-name="threequarters" unicode="&#xbe;" horiz-adv-x="2043" 
d="M340 459q-110 0 -199.5 52.5t-89.5 127.5q0 51 36.5 83t94.5 32q40 0 72 -21.5t52 -52t37.5 -61.5t38 -52.5t44.5 -21.5q38 0 81.5 56t43.5 134q0 73 -55 108.5t-138 35.5q-25 0 -53 -3.5t-37 -3.5q-65 0 -65 48q0 22 13 37.5t44 35.5q36 22 62 39.5t56 41.5t46 48.5
t16 46.5q0 25 -17.5 39.5t-49.5 14.5q-47 0 -118.5 -46.5t-94.5 -48.5q-22 0 -36.5 12.5t-14.5 33.5q0 39 50 80t130.5 67.5t161.5 26.5q110 0 174.5 -40.5t64.5 -109.5q0 -91 -151 -158q-3 -1 -4.5 -6t0.5 -9t8 -3q13 2 31.5 2.5t44.5 -3t51.5 -10.5t51.5 -22.5t45.5 -37
t31.5 -55.5t12 -77q0 -86 -50.5 -157.5t-125.5 -114t-153 -65.5t-142 -23zM715 -8l465 1354q9 32 57 32h94q20 0 27 -17.5t0 -37.5l-463 -1354q-12 -32 -59 -32h-95q-20 0 -26.5 17.5t0.5 37.5zM1194 285q0 28 12 47l375 540q24 32 59 15l117 -70q16 -12 15.5 -26.5
t-11.5 -26.5l-370 -389q-9 -11 -5 -20t19 -9h158q10 0 16 7t6 16v114q0 35 29 45q35 12 96.5 39t67.5 29q32 16 39 16q26 0 26 -37v-206q0 -9 6.5 -16t16.5 -7h98q18 0 24.5 -5t4.5 -19l-11 -84q-3 -25 -28 -25h-88q-9 0 -16 -6.5t-7 -16.5v-90q0 -17 30.5 -25.5t60.5 -15
t30 -18.5q0 -17 -12 -29t-29 -12h-430q-17 0 -29 12t-12 29q0 9 31 17t61.5 18t30.5 24v90q0 9 -6.5 16t-16.5 7h-299q-44 0 -51 33z" />
    <glyph glyph-name="questiondown" unicode="&#xbf;" horiz-adv-x="1083" 
d="M649 561q45 -38 99.5 -117.5t54.5 -134.5q0 -30 -22.5 -46.5t-81.5 -41.5l-15 -6q-7 -3 -34 -16t-36.5 -18t-34 -19t-35.5 -22.5t-31 -25t-30 -30t-23.5 -34t-19.5 -41.5t-11 -47.5t-5 -55.5q0 -117 59.5 -177.5t143.5 -60.5q38 0 61 12.5t23 34.5q0 19 -17 36t-37.5 31
t-37.5 45t-17 75q0 84 54.5 128t125.5 44q79 0 131 -53t52 -136q0 -55 -26 -106t-76 -93.5t-134.5 -68t-191.5 -25.5q-62 0 -121.5 8t-126.5 31.5t-116.5 61t-82.5 102t-33 148.5q0 50 11 92.5t33 74t43.5 55t54.5 43.5t53 30.5t52 23.5t40 17q30 14 50.5 30.5t34.5 34
t27.5 51t22 62t23.5 86.5q15 49 65 49q43 0 82 -31zM379 870q0 88 57 148.5t154 60.5q82 0 148.5 -49.5t66.5 -138.5q0 -87 -57 -147t-152 -60q-83 0 -150 49.5t-67 136.5z" />
    <glyph glyph-name="Agrave" unicode="&#xc0;" horiz-adv-x="1488" 
d="M-39 0q-16 0 -24.5 19.5t-8.5 31.5q0 10 28.5 25t65.5 30.5t75.5 46.5t54.5 68l335 774q37 80 37 119q-2 26 -29.5 57.5t-54 55.5t-26.5 33q0 7 2 14t13 15.5t30 8.5q100 0 176 17.5t117.5 35t56.5 17.5t23.5 -8t17.5 -29l506 -1122q17 -38 53 -67.5t69 -42.5t58 -25.5
t25 -22.5q0 -11 -9 -31t-24 -20h-760q-16 0 -24.5 19.5t-8.5 31.5q0 10 20 18.5t48 15t55.5 13t44 15.5t12.5 20l-81 213q-11 25 -41 25h-410q-19 0 -25 -13l-10 -26q-8 -23 2 -43l76 -162q11 -22 54.5 -33.5t80.5 -19.5t37 -23q0 -12 -8 -31.5t-23 -19.5h-606zM395 1577
q2 42 29 75.5t70 33.5q15 0 32 -5t28.5 -10t43.5 -20l348 -160q31 -14 21 -45l-11 -25q-10 -29 -47 -20l-432 84q-49 8 -66.5 36.5t-15.5 55.5zM420 539q-5 -15 1.5 -22t16.5 -7h303q30 0 19 29l-142 360q-8 22 -22 22.5t-23 -22.5z" />
    <glyph glyph-name="Aacute" unicode="&#xc1;" horiz-adv-x="1488" 
d="M-39 0q-16 0 -24.5 19.5t-8.5 31.5q0 10 28.5 25t65.5 30.5t75.5 46.5t54.5 68l335 774q37 80 37 119q-2 26 -29.5 57.5t-54 55.5t-26.5 33q0 7 2 14t13 15.5t30 8.5q100 0 176 17.5t117.5 35t56.5 17.5t23.5 -8t17.5 -29l506 -1122q17 -38 53 -67.5t69 -42.5t58 -25.5
t25 -22.5q0 -11 -9 -31t-24 -20h-760q-16 0 -24.5 19.5t-8.5 31.5q0 10 20 18.5t48 15t55.5 13t44 15.5t12.5 20l-81 213q-11 25 -41 25h-410q-19 0 -25 -13l-10 -26q-8 -23 2 -43l76 -162q11 -22 54.5 -33.5t80.5 -19.5t37 -23q0 -12 -8 -31.5t-23 -19.5h-606zM397 1446
q-10 31 21 45l348 160q32 15 43.5 20t28.5 10t32 5q43 0 70 -33.5t29 -75.5q2 -27 -15.5 -55.5t-66.5 -36.5l-432 -84q-37 -9 -47 20zM420 539q-5 -15 1.5 -22t16.5 -7h303q30 0 19 29l-142 360q-8 22 -22 22.5t-23 -22.5z" />
    <glyph glyph-name="Acircumflex" unicode="&#xc2;" horiz-adv-x="1488" 
d="M-39 0q-16 0 -24.5 19.5t-8.5 31.5q0 10 28.5 25t65.5 30.5t75.5 46.5t54.5 68l335 774q37 80 37 119q-2 26 -29.5 57.5t-54 55.5t-26.5 33q0 7 2 14t13 15.5t30 8.5q100 0 176 17.5t117.5 35t56.5 17.5t23.5 -8t17.5 -29l506 -1122q17 -38 53 -67.5t69 -42.5t58 -25.5
t25 -22.5q0 -11 -9 -31t-24 -20h-760q-16 0 -24.5 19.5t-8.5 31.5q0 10 20 18.5t48 15t55.5 13t44 15.5t12.5 20l-81 213q-11 25 -41 25h-410q-19 0 -25 -13l-10 -26q-8 -23 2 -43l76 -162q11 -22 54.5 -33.5t80.5 -19.5t37 -23q0 -12 -8 -31.5t-23 -19.5h-606zM385 1477
l180 204q19 27 49 27h136q26 0 49 -27l178 -204q9 -11 6.5 -22t-14.5 -11h-129q-40 0 -56 20l-86 88q-20 26 -43 0l-92 -88q-20 -20 -51 -20h-119q-12 0 -14.5 11t6.5 22zM420 539q-5 -15 1.5 -22t16.5 -7h303q30 0 19 29l-142 360q-8 22 -22 22.5t-23 -22.5z" />
    <glyph glyph-name="Atilde" unicode="&#xc3;" horiz-adv-x="1488" 
d="M-39 0q-16 0 -24.5 19.5t-8.5 31.5q0 10 28.5 25t65.5 30.5t75.5 46.5t54.5 68l335 774q37 80 37 119q-2 26 -29.5 57.5t-54 55.5t-26.5 33q0 7 2 14t13 15.5t30 8.5q100 0 176 17.5t117.5 35t56.5 17.5t23.5 -8t17.5 -29l506 -1122q17 -38 53 -67.5t69 -42.5t58 -25.5
t25 -22.5q0 -11 -9 -31t-24 -20h-760q-16 0 -24.5 19.5t-8.5 31.5q0 10 20 18.5t48 15t55.5 13t44 15.5t12.5 20l-81 213q-11 25 -41 25h-410q-19 0 -25 -13l-10 -26q-8 -23 2 -43l76 -162q11 -22 54.5 -33.5t80.5 -19.5t37 -23q0 -12 -8 -31.5t-23 -19.5h-606zM352 1516
q7 93 66.5 146.5t146.5 45.5q46 -4 90.5 -34t82.5 -59.5t69 -31.5q50 -3 53 47q3 31 31 31h86q15 0 24 -10.5t7 -24.5q-7 -94 -68 -148t-145 -46q-45 3 -92 33t-87.5 59.5t-70.5 31.5q-21 2 -35.5 -10.5t-15.5 -36.5q-3 -30 -29 -30h-86q-13 0 -21 11t-6 26zM420 539
q-5 -15 1.5 -22t16.5 -7h303q30 0 19 29l-142 360q-8 22 -22 22.5t-23 -22.5z" />
    <glyph glyph-name="Adieresis" unicode="&#xc4;" horiz-adv-x="1488" 
d="M-39 0q-16 0 -24.5 19.5t-8.5 31.5q0 10 28.5 25t65.5 30.5t75.5 46.5t54.5 68l335 774q37 80 37 119q-2 26 -29.5 57.5t-54 55.5t-26.5 33q0 7 2 14t13 15.5t30 8.5q100 0 176 17.5t117.5 35t56.5 17.5t23.5 -8t17.5 -29l506 -1122q17 -38 53 -67.5t69 -42.5t58 -25.5
t25 -22.5q0 -11 -9 -31t-24 -20h-760q-16 0 -24.5 19.5t-8.5 31.5q0 10 20 18.5t48 15t55.5 13t44 15.5t12.5 20l-81 213q-11 25 -41 25h-410q-19 0 -25 -13l-10 -26q-8 -23 2 -43l76 -162q11 -22 54.5 -33.5t80.5 -19.5t37 -23q0 -12 -8 -31.5t-23 -19.5h-606zM360 1581
q0 51 36 88t87 37t89 -37t38 -88t-38 -87t-89 -36t-87 36t-36 87zM420 539q-5 -15 1.5 -22t16.5 -7h303q30 0 19 29l-142 360q-8 22 -22 22.5t-23 -22.5zM752 1581q0 51 38 88t89 37q50 0 86 -37t36 -88t-36 -87t-86 -36q-51 0 -89 36t-38 87z" />
    <glyph glyph-name="Aring" unicode="&#xc5;" horiz-adv-x="1488" 
d="M-39 0q-16 0 -24.5 19.5t-8.5 31.5q0 10 28.5 25t65.5 30.5t75.5 46.5t54.5 68l335 774q37 80 37 119q-2 26 -29.5 57.5t-54 55.5t-26.5 33q0 7 2 14t13 15.5t30 8.5h28q-71 68 -71 168t73 169t187 69q115 0 188.5 -69t73.5 -169q0 -103 -74 -168l492 -1089
q17 -38 53 -67.5t69 -42.5t58 -25.5t25 -22.5q0 -11 -9 -31t-24 -20h-760q-16 0 -24.5 19.5t-8.5 31.5q0 10 20 18.5t48 15t55.5 13t44 15.5t12.5 20l-81 213q-11 25 -41 25h-410q-19 0 -25 -13l-10 -26q-8 -23 2 -43l76 -162q11 -22 54.5 -33.5t80.5 -19.5t37 -23
q0 -12 -8 -31.5t-23 -19.5h-606zM420 539q-5 -15 1.5 -22t16.5 -7h303q30 0 19 29l-142 360q-8 22 -22 22.5t-23 -22.5zM563 1466q0 -54 31 -87t82 -33q53 0 84 32.5t31 87.5q0 57 -30.5 90t-84.5 33q-51 0 -82 -33t-31 -90z" />
    <glyph glyph-name="AE" unicode="&#xc6;" horiz-adv-x="1914" 
d="M-39 0q-16 0 -24.5 19.5t-8.5 31.5t38 34t91 58.5t80 77.5l590 891q58 81 -2 109q-62 22 -71 32q-5 6 -5 11q0 12 8.5 31.5t24.5 19.5h1038q19 0 33 -12.5t14 -32.5l21 -439q1 -18 -9 -25.5t-25 -1.5t-28 25l-249 338q-15 23 -50 23h-190q-13 0 -22 -9t-9 -22v-393
q0 -13 8.5 -21t22.5 -8h82q17 0 29 15l157 184q13 16 29 10t16 -24v-525q0 -19 -16.5 -25t-28.5 11l-157 215q-11 14 -29 14h-82q-14 0 -22.5 -8.5t-8.5 -21.5v-400q0 -21 10.5 -34t30.5 -13h187q46 0 86 53l239 330q23 32 46 32t20 -40l-39 -457q-3 -53 -60 -53h-1044
q-16 0 -24.5 19.5t-8.5 31.5t24.5 23.5t53.5 20t53.5 24.5t24.5 35v223q-6 16 -33 16h-362q-17 0 -25 -14l-18 -31q-11 -16 0 -39l59 -182q7 -24 45 -35.5t72.5 -18.5t34.5 -22q0 -12 -8 -31.5t-23 -19.5h-586zM510 565q-7 -15 -1 -21.5t15 -6.5h256q19 0 25 16v403
q-4 13 -18 11.5t-25 -19.5z" />
    <glyph glyph-name="Ccedilla" unicode="&#xc7;" horiz-adv-x="1343" 
d="M745 1346q145 0 285.5 -43.5t200.5 -90.5q26 -20 27 -38.5t-13 -38.5l-213 -353q-7 -15 -29.5 -14t-31.5 20l-168 369q-21 45 -56.5 71.5t-78.5 26.5q-30 0 -58.5 -11.5t-57.5 -40.5t-50.5 -73t-35 -114.5t-13.5 -159.5q0 -137 31 -251t92 -200t159.5 -134t225.5 -48
q49 0 89 8.5t71.5 25t49.5 29.5t41 33q39 31 52 34q5 1 10 1q31 0 31 -30q0 -40 -21.5 -86.5t-66.5 -93.5t-106.5 -85.5t-150 -64t-188.5 -27.5l-20 -61h49q96 0 152.5 -37t56.5 -107q0 -88 -80.5 -153.5t-198.5 -65.5q-93 0 -168.5 39t-75.5 86q0 15 8.5 30t26.5 15
q17 0 37.5 -16.5t52 -33.5t76.5 -17q43 0 69.5 23t26.5 65q0 80 -92 80q-16 0 -35.5 -2t-27.5 -2q-50 0 -37 43l41 122q-94 13 -179.5 43.5t-164 84.5t-135.5 126t-91 172t-34 217q0 146 51.5 278.5t142.5 232t227 158.5t295 59z" />
    <glyph glyph-name="Egrave" unicode="&#xc8;" horiz-adv-x="1306" 
d="M74 0q-16 0 -24.5 19.5t-8.5 31.5t24.5 23.5t53.5 20t53.5 24.5t24.5 35v1007q0 19 -24.5 35t-53.5 24.5t-53.5 20t-24.5 23.5t8.5 31.5t24.5 19.5h1038q19 0 33 -12.5t14 -32.5l21 -439q1 -18 -9 -25.5t-25 -1.5t-28 25l-250 338q-15 23 -49 23h-190q-13 0 -22 -9
t-9 -22v-393q0 -13 8.5 -21t22.5 -8h82q16 0 28 15l158 184q13 16 29 10t16 -24v-525q0 -19 -16.5 -25t-28.5 11l-158 215q-11 14 -28 14h-82q-14 0 -22.5 -8.5t-8.5 -21.5v-400q0 -21 10.5 -34t30.5 -13h186q46 0 86 53l240 330q23 32 46 32t20 -40l-39 -457
q-3 -53 -60 -53h-1044zM360 1577q2 42 29 75.5t70 33.5q15 0 32 -5t28.5 -10t43.5 -20l348 -160q31 -14 21 -45l-10 -25q-10 -29 -48 -20l-432 84q-49 8 -66.5 36.5t-15.5 55.5z" />
    <glyph glyph-name="Eacute" unicode="&#xc9;" horiz-adv-x="1306" 
d="M74 0q-16 0 -24.5 19.5t-8.5 31.5t24.5 23.5t53.5 20t53.5 24.5t24.5 35v1007q0 19 -24.5 35t-53.5 24.5t-53.5 20t-24.5 23.5t8.5 31.5t24.5 19.5h1038q19 0 33 -12.5t14 -32.5l21 -439q1 -18 -9 -25.5t-25 -1.5t-28 25l-250 338q-15 23 -49 23h-190q-13 0 -22 -9
t-9 -22v-393q0 -13 8.5 -21t22.5 -8h82q16 0 28 15l158 184q13 16 29 10t16 -24v-525q0 -19 -16.5 -25t-28.5 11l-158 215q-11 14 -28 14h-82q-14 0 -22.5 -8.5t-8.5 -21.5v-400q0 -21 10.5 -34t30.5 -13h186q46 0 86 53l240 330q23 32 46 32t20 -40l-39 -457
q-3 -53 -60 -53h-1044zM362 1446q-10 31 21 45l348 160q75 35 105 35q43 0 69.5 -33.5t28.5 -75.5q2 -27 -15.5 -55.5t-66.5 -36.5l-432 -84q-37 -9 -47 20z" />
    <glyph glyph-name="Ecircumflex" unicode="&#xca;" horiz-adv-x="1306" 
d="M74 0q-16 0 -24.5 19.5t-8.5 31.5t24.5 23.5t53.5 20t53.5 24.5t24.5 35v1007q0 19 -24.5 35t-53.5 24.5t-53.5 20t-24.5 23.5t8.5 31.5t24.5 19.5h1038q19 0 33 -12.5t14 -32.5l21 -439q1 -18 -9 -25.5t-25 -1.5t-28 25l-250 338q-15 23 -49 23h-190q-13 0 -22 -9
t-9 -22v-393q0 -13 8.5 -21t22.5 -8h82q16 0 28 15l158 184q13 16 29 10t16 -24v-525q0 -19 -16.5 -25t-28.5 11l-158 215q-11 14 -28 14h-82q-14 0 -22.5 -8.5t-8.5 -21.5v-400q0 -21 10.5 -34t30.5 -13h186q46 0 86 53l240 330q23 32 46 32t20 -40l-39 -457
q-3 -53 -60 -53h-1044zM350 1477l180 204q19 27 50 27h135q26 0 49 -27l178 -204q9 -11 6.5 -22t-14.5 -11h-129q-39 0 -55 20l-86 88q-20 26 -43 0l-93 -88q-20 -20 -51 -20h-119q-12 0 -14.5 11t6.5 22z" />
    <glyph glyph-name="Edieresis" unicode="&#xcb;" horiz-adv-x="1306" 
d="M74 0q-16 0 -24.5 19.5t-8.5 31.5t24.5 23.5t53.5 20t53.5 24.5t24.5 35v1007q0 19 -24.5 35t-53.5 24.5t-53.5 20t-24.5 23.5t8.5 31.5t24.5 19.5h1038q19 0 33 -12.5t14 -32.5l21 -439q1 -18 -9 -25.5t-25 -1.5t-28 25l-250 338q-15 23 -49 23h-190q-13 0 -22 -9
t-9 -22v-393q0 -13 8.5 -21t22.5 -8h82q16 0 28 15l158 184q13 16 29 10t16 -24v-525q0 -19 -16.5 -25t-28.5 11l-158 215q-11 14 -28 14h-82q-14 0 -22.5 -8.5t-8.5 -21.5v-400q0 -21 10.5 -34t30.5 -13h186q46 0 86 53l240 330q23 32 46 32t20 -40l-39 -457
q-3 -53 -60 -53h-1044zM326 1581q0 51 36 88t87 37t88.5 -37t37.5 -88t-37.5 -87t-88.5 -36t-87 36t-36 87zM717 1581q0 51 38 88t89 37q50 0 86.5 -37t36.5 -88t-36.5 -87t-86.5 -36q-51 0 -89 36t-38 87z" />
    <glyph glyph-name="Igrave" unicode="&#xcc;" horiz-adv-x="800" 
d="M76 0q-16 0 -24.5 19.5t-8.5 31.5t24.5 23.5t54.5 20t54.5 24.5t24.5 35v1007q0 19 -24.5 35t-54.5 24.5t-54.5 20t-24.5 23.5t8.5 31.5t24.5 19.5h647q16 0 24.5 -19.5t8.5 -31.5t-24 -23.5t-53 -20t-53 -24.5t-24 -35v-1007q0 -19 24 -35t53 -24.5t53 -20t24 -23.5
t-8.5 -31.5t-24.5 -19.5h-647zM115 1577q2 42 28.5 75.5t69.5 33.5q15 0 32 -5t28.5 -10t43.5 -20l349 -160q31 -13 20 -45l-10 -25q-10 -29 -47 -20l-432 84q-49 8 -66.5 36.5t-15.5 55.5z" />
    <glyph glyph-name="Iacute" unicode="&#xcd;" horiz-adv-x="800" 
d="M76 0q-16 0 -24.5 19.5t-8.5 31.5t24.5 23.5t54.5 20t54.5 24.5t24.5 35v1007q0 19 -24.5 35t-54.5 24.5t-54.5 20t-24.5 23.5t8.5 31.5t24.5 19.5h647q16 0 24.5 -19.5t8.5 -31.5t-24 -23.5t-53 -20t-53 -24.5t-24 -35v-1007q0 -19 24 -35t53 -24.5t53 -20t24 -23.5
t-8.5 -31.5t-24.5 -19.5h-647zM117 1446q-11 32 20 45l348 160q75 35 105 35q43 0 69.5 -33.5t28.5 -75.5q2 -27 -15.5 -55.5t-66.5 -36.5l-432 -84q-37 -9 -47 20z" />
    <glyph glyph-name="Icircumflex" unicode="&#xce;" horiz-adv-x="800" 
d="M76 0q-16 0 -24.5 19.5t-8.5 31.5t24.5 23.5t54.5 20t54.5 24.5t24.5 35v1007q0 19 -24.5 35t-54.5 24.5t-54.5 20t-24.5 23.5t8.5 31.5t24.5 19.5h647q16 0 24.5 -19.5t8.5 -31.5t-24 -23.5t-53 -20t-53 -24.5t-24 -35v-1007q0 -19 24 -35t53 -24.5t53 -20t24 -23.5
t-8.5 -31.5t-24.5 -19.5h-647zM104 1477l181 204q19 27 49 27h135q26 0 49 -27l178 -204q9 -11 6.5 -22t-14.5 -11h-129q-39 0 -55 20l-86 88q-20 26 -43 0l-92 -88q-20 -20 -52 -20h-118q-12 0 -15 11t6 22z" />
    <glyph glyph-name="Idieresis" unicode="&#xcf;" horiz-adv-x="800" 
d="M76 0q-16 0 -24.5 19.5t-8.5 31.5t24.5 23.5t54.5 20t54.5 24.5t24.5 35v1007q0 19 -24.5 35t-54.5 24.5t-54.5 20t-24.5 23.5t8.5 31.5t24.5 19.5h647q16 0 24.5 -19.5t8.5 -31.5t-24 -23.5t-53 -20t-53 -24.5t-24 -35v-1007q0 -19 24 -35t53 -24.5t53 -20t24 -23.5
t-8.5 -31.5t-24.5 -19.5h-647zM80 1581q0 51 36 88t87 37t89 -37t38 -88t-38 -87t-89 -36t-87 36t-36 87zM471 1581q0 51 38 88t89 37q50 0 86.5 -37t36.5 -88t-36.5 -87t-86.5 -36q-51 0 -89 36t-38 87z" />
    <glyph glyph-name="Eth" unicode="&#xd0;" horiz-adv-x="1466" 
d="M117 594q-12 0 -20.5 8.5t-8.5 20.5v69q0 13 8.5 22t20.5 9h80v438q0 19 -24.5 35t-53.5 24.5t-53.5 20t-24.5 23.5t8.5 31.5t24.5 19.5h723q94 0 183.5 -22.5t173 -72.5t145.5 -122t99.5 -179t37.5 -235q0 -148 -43 -272t-125 -216.5t-210.5 -144t-291.5 -51.5h-692
q-16 0 -24.5 19.5t-8.5 31.5t24.5 23.5t53.5 20t53.5 24.5t24.5 35v440h-80zM598 238q0 -25 2.5 -40.5t13.5 -36.5t38.5 -31.5t70.5 -10.5q130 0 201 109.5t71 332.5q0 126 -23.5 237t-61 188t-84 133.5t-94.5 83t-91 26.5q-28 0 -35.5 -7.5t-7.5 -27.5v-471h172
q12 0 21.5 -9t9.5 -22v-69q0 -12 -9.5 -20.5t-21.5 -8.5h-172v-356z" />
    <glyph glyph-name="Ntilde" unicode="&#xd1;" horiz-adv-x="1492" 
d="M1305 33q0 -38 -31.5 -46.5t-59.5 13.5l-874 705q-12 10 -21.5 6t-9.5 -17v-350q0 -24 81 -89.5t162 -127t81 -76.5q0 -11 -9 -31t-24 -20h-532q-15 0 -24 20t-9 31q0 12 24 28.5t53.5 30.5t53.5 34.5t24 39.5v908q0 21 -31.5 48t-69.5 48t-69.5 42.5t-31.5 33.5
t8.5 31.5t23.5 19.5h216q17 0 31 -5t20.5 -9.5t25.5 -18.5l832 -657q41 -27 41 14v348q0 19 -51.5 62t-113.5 84t-113.5 80t-51.5 51q0 11 9 31t24 20h608q16 0 24.5 -19.5t8.5 -31.5t-35 -33t-77.5 -41t-77.5 -45.5t-35 -44.5v-1067zM422 1516q7 93 66.5 146.5t146.5 45.5
q46 -4 90.5 -34t82.5 -59.5t69 -31.5q50 -3 53 47q3 31 31 31h86q15 0 23.5 -10.5t6.5 -24.5q-7 -94 -68 -148t-145 -46q-45 3 -92 33t-87.5 59.5t-70.5 31.5q-21 2 -35.5 -10.5t-15.5 -36.5q-3 -30 -28 -30h-86q-13 0 -21 11t-6 26z" />
    <glyph glyph-name="Ograve" unicode="&#xd2;" horiz-adv-x="1531" 
d="M770 -31q-105 0 -206.5 22t-199.5 73t-171.5 125t-118.5 187t-45 251q0 148 51 278.5t144 227.5t232 153.5t306 56.5q74 0 147 -11t146.5 -36t139 -61.5t122.5 -90t98 -119.5t64.5 -153t23.5 -186q0 -147 -51 -277.5t-144 -228t-232 -154.5t-306 -57zM459 905
q0 -134 31 -282t83.5 -273.5t129.5 -207t161 -81.5q98 0 153.5 87t55.5 258q0 100 -18.5 214.5t-54.5 226t-83.5 202t-113 146.5t-135.5 56q-100 0 -154.5 -86t-54.5 -260zM481 1577q2 42 29 75.5t70 33.5q15 0 32 -5t28.5 -10t43.5 -20l348 -160q31 -14 21 -45l-11 -25
q-10 -29 -47 -20l-432 84q-49 8 -66.5 36.5t-15.5 55.5z" />
    <glyph glyph-name="Oacute" unicode="&#xd3;" horiz-adv-x="1531" 
d="M770 -31q-105 0 -206.5 22t-199.5 73t-171.5 125t-118.5 187t-45 251q0 148 51 278.5t144 227.5t232 153.5t306 56.5q74 0 147 -11t146.5 -36t139 -61.5t122.5 -90t98 -119.5t64.5 -153t23.5 -186q0 -147 -51 -277.5t-144 -228t-232 -154.5t-306 -57zM459 905
q0 -134 31 -282t83.5 -273.5t129.5 -207t161 -81.5q98 0 153.5 87t55.5 258q0 100 -18.5 214.5t-54.5 226t-83.5 202t-113 146.5t-135.5 56q-100 0 -154.5 -86t-54.5 -260zM483 1446q-10 31 21 45l348 160q32 15 43.5 20t28.5 10t32 5q43 0 70 -33.5t29 -75.5
q2 -27 -15.5 -55.5t-66.5 -36.5l-432 -84q-37 -9 -47 20z" />
    <glyph glyph-name="Ocircumflex" unicode="&#xd4;" horiz-adv-x="1531" 
d="M770 -31q-105 0 -206.5 22t-199.5 73t-171.5 125t-118.5 187t-45 251q0 148 51 278.5t144 227.5t232 153.5t306 56.5q74 0 147 -11t146.5 -36t139 -61.5t122.5 -90t98 -119.5t64.5 -153t23.5 -186q0 -147 -51 -277.5t-144 -228t-232 -154.5t-306 -57zM459 905
q0 -134 31 -282t83.5 -273.5t129.5 -207t161 -81.5q98 0 153.5 87t55.5 258q0 100 -18.5 214.5t-54.5 226t-83.5 202t-113 146.5t-135.5 56q-100 0 -154.5 -86t-54.5 -260zM469 1477l180 204q19 27 49 27h136q26 0 49 -27l178 -204q9 -11 6.5 -22t-14.5 -11h-129
q-40 0 -56 20l-86 88q-20 26 -43 0l-92 -88q-20 -20 -51 -20h-119q-12 0 -14.5 11t6.5 22z" />
    <glyph glyph-name="Otilde" unicode="&#xd5;" horiz-adv-x="1531" 
d="M770 -31q-105 0 -206.5 22t-199.5 73t-171.5 125t-118.5 187t-45 251q0 148 51 278.5t144 227.5t232 153.5t306 56.5q74 0 147 -11t146.5 -36t139 -61.5t122.5 -90t98 -119.5t64.5 -153t23.5 -186q0 -147 -51 -277.5t-144 -228t-232 -154.5t-306 -57zM438 1516
q7 93 66.5 146.5t146.5 45.5q46 -4 90.5 -34t82.5 -59.5t69 -31.5q50 -3 53 47q3 31 31 31h86q15 0 24 -10.5t7 -24.5q-7 -94 -68 -148t-145 -46q-45 3 -92 33t-87.5 59.5t-70.5 31.5q-21 2 -35.5 -10.5t-15.5 -36.5q-3 -30 -29 -30h-86q-13 0 -21 11t-6 26zM459 905
q0 -134 31 -282t83.5 -273.5t129.5 -207t161 -81.5q98 0 153.5 87t55.5 258q0 100 -18.5 214.5t-54.5 226t-83.5 202t-113 146.5t-135.5 56q-100 0 -154.5 -86t-54.5 -260z" />
    <glyph glyph-name="Odieresis" unicode="&#xd6;" horiz-adv-x="1531" 
d="M770 -31q-105 0 -206.5 22t-199.5 73t-171.5 125t-118.5 187t-45 251q0 148 51 278.5t144 227.5t232 153.5t306 56.5q74 0 147 -11t146.5 -36t139 -61.5t122.5 -90t98 -119.5t64.5 -153t23.5 -186q0 -147 -51 -277.5t-144 -228t-232 -154.5t-306 -57zM446 1581
q0 51 36 88t87 37t89 -37t38 -88t-38 -87t-89 -36t-87 36t-36 87zM459 905q0 -134 31 -282t83.5 -273.5t129.5 -207t161 -81.5q98 0 153.5 87t55.5 258q0 100 -18.5 214.5t-54.5 226t-83.5 202t-113 146.5t-135.5 56q-100 0 -154.5 -86t-54.5 -260zM838 1581q0 51 38 88
t89 37q50 0 86 -37t36 -88t-36 -87t-86 -36q-51 0 -89 36t-38 87z" />
    <glyph glyph-name="multiply" unicode="&#xd7;" horiz-adv-x="1110" 
d="M166 233q-14 12 -14 29t14 29l190 192q14 13 14 30.5t-14 29.5l-190 190q-12 13 -12 30.5t12 29.5l108 108q12 12 29.5 12t30.5 -12l190 -190q12 -13 29 -13t31 13l192 190q12 13 29 13t29 -13l112 -110q12 -12 12 -29.5t-12 -30.5l-192 -190q-14 -13 -14 -30.5t14 -29.5
l190 -190q12 -14 12 -31t-12 -29l-108 -108q-12 -12 -29 -12t-31 12l-190 190q-12 13 -29 13t-31 -13l-192 -190q-12 -13 -29 -13t-29 13z" />
    <glyph glyph-name="Oslash" unicode="&#xd8;" horiz-adv-x="1531" 
d="M346 -61q-33 17 -16 57l35 67q-152 78 -244 219t-92 345q0 148 51 278.5t144 227.5t232 153.5t306 56.5q136 0 260 -36l45 84q19 38 61 16l60 -29q35 -18 16 -55l-39 -72q154 -79 246 -220t92 -345q0 -147 -51 -277.5t-144 -228t-232 -154.5t-306 -57q-133 0 -260 37
l-43 -80q-21 -41 -64 -16zM459 905q0 -250 90 -493l352 663q-105 176 -233 176q-100 0 -154.5 -86t-54.5 -260zM631 238q110 -177 233 -177q98 0 153.5 87t55.5 258q0 246 -92 495z" />
    <glyph glyph-name="Ugrave" unicode="&#xd9;" horiz-adv-x="1507" 
d="M774 -31q-277 0 -433.5 136.5t-156.5 410.5v645q0 19 -25.5 35t-56.5 24.5t-56.5 20t-25.5 23.5q0 11 9 31t24 20h738q16 0 25 -19.5t9 -31.5t-38 -35t-83.5 -45.5t-83.5 -51t-38 -49.5v-614q0 -141 74.5 -224t224.5 -83q157 0 231 87t74 234v588q0 19 -37 48.5t-81 55
t-81 51.5t-37 40q0 10 9 29.5t24 19.5h520q15 0 24 -20t9 -31q0 -12 -34 -32.5t-74.5 -39t-74.5 -43t-34 -43.5v-660q0 -227 -142 -352t-403 -125zM602 1577q2 42 28.5 75.5t69.5 33.5q30 0 105 -35l348 -160q31 -14 21 -45l-11 -25q-10 -29 -47 -20l-432 84
q-49 8 -66.5 36.5t-15.5 55.5z" />
    <glyph glyph-name="Uacute" unicode="&#xda;" horiz-adv-x="1507" 
d="M774 -31q-277 0 -433.5 136.5t-156.5 410.5v645q0 19 -25.5 35t-56.5 24.5t-56.5 20t-25.5 23.5q0 11 9 31t24 20h738q16 0 25 -19.5t9 -31.5t-38 -35t-83.5 -45.5t-83.5 -51t-38 -49.5v-614q0 -141 74.5 -224t224.5 -83q157 0 231 87t74 234v588q0 19 -37 48.5t-81 55
t-81 51.5t-37 40q0 10 9 29.5t24 19.5h520q15 0 24 -20t9 -31q0 -12 -34 -32.5t-74.5 -39t-74.5 -43t-34 -43.5v-660q0 -227 -142 -352t-403 -125zM602 1446q-10 31 21 45l348 160q32 15 43.5 20t28.5 10t32 5q43 0 70 -33.5t29 -75.5q2 -27 -15.5 -55.5t-66.5 -36.5
l-433 -84q-37 -9 -47 20z" />
    <glyph glyph-name="Ucircumflex" unicode="&#xdb;" horiz-adv-x="1507" 
d="M774 -31q-277 0 -433.5 136.5t-156.5 410.5v645q0 19 -25.5 35t-56.5 24.5t-56.5 20t-25.5 23.5q0 11 9 31t24 20h738q16 0 25 -19.5t9 -31.5t-38 -35t-83.5 -45.5t-83.5 -51t-38 -49.5v-614q0 -141 74.5 -224t224.5 -83q157 0 231 87t74 234v588q0 19 -37 48.5t-81 55
t-81 51.5t-37 40q0 10 9 29.5t24 19.5h520q15 0 24 -20t9 -31q0 -12 -34 -32.5t-74.5 -39t-74.5 -43t-34 -43.5v-660q0 -227 -142 -352t-403 -125zM590 1477l180 204q19 27 49 27h135q27 0 50 -27l178 -204q9 -11 6.5 -22t-14.5 -11h-130q-39 0 -55 20l-86 88q-20 26 -43 0
l-92 -88q-20 -20 -51 -20h-119q-12 0 -14.5 11t6.5 22z" />
    <glyph glyph-name="Udieresis" unicode="&#xdc;" horiz-adv-x="1507" 
d="M774 -31q-277 0 -433.5 136.5t-156.5 410.5v645q0 19 -25.5 35t-56.5 24.5t-56.5 20t-25.5 23.5q0 11 9 31t24 20h738q16 0 25 -19.5t9 -31.5t-38 -35t-83.5 -45.5t-83.5 -51t-38 -49.5v-614q0 -141 74.5 -224t224.5 -83q157 0 231 87t74 234v588q0 19 -37 48.5t-81 55
t-81 51.5t-37 40q0 10 9 29.5t24 19.5h520q15 0 24 -20t9 -31q0 -12 -34 -32.5t-74.5 -39t-74.5 -43t-34 -43.5v-660q0 -227 -142 -352t-403 -125zM565 1581q0 51 36 88t87 37t89 -37t38 -88t-38 -87t-89 -36t-87 36t-36 87zM956 1581q0 51 38 88t89 37q50 0 86.5 -37
t36.5 -88t-36.5 -87t-86.5 -36q-51 0 -89 36t-38 87z" />
    <glyph glyph-name="Yacute" unicode="&#xdd;" horiz-adv-x="1374" 
d="M309 0q-15 0 -24 20t-9 33q0 14 52 30t104.5 36.5t52.5 44.5v385q0 50 -30 98l-351 539q-12 18 -55.5 30.5t-80 22.5t-36.5 23t9 33t24 20h723q16 0 24.5 -19.5t8.5 -31.5t-25 -24t-51 -21.5t-42.5 -28.5t1.5 -45l197 -307q11 -14 22.5 -14t20.5 14l114 172
q12 17 16.5 24t9.5 18.5t4.5 20t-5.5 17.5l-57 86q-14 21 -42.5 36t-48.5 25.5t-20 26.5q0 11 9 31t24 20h563q15 0 24 -20t9 -33q0 -17 -49.5 -29t-112 -31t-84.5 -51l-283 -418q-28 -42 -28 -86v-483q0 -24 51.5 -44.5t103.5 -36.5t52 -30t-8.5 -33.5t-24.5 -19.5h-752z
M406 1446q-11 32 20 45l348 160q75 35 105 35q43 0 69.5 -33.5t28.5 -75.5q2 -27 -15.5 -55.5t-66.5 -36.5l-432 -84q-37 -9 -47 20z" />
    <glyph glyph-name="Thorn" unicode="&#xde;" horiz-adv-x="1357" 
d="M74 0q-16 0 -24.5 19.5t-8.5 31.5t24.5 23.5t54.5 20t54.5 24.5t24.5 35v1007q0 19 -24.5 35t-54.5 24.5t-54.5 20t-24.5 23.5t8.5 31.5t24.5 19.5h647q16 0 24.5 -19.5t8.5 -31.5t-24 -23.5t-53 -20t-53 -24.5t-24 -35v-137q9 -18 37 -18h305q180 0 284.5 -80.5
t104.5 -251.5q0 -184 -129 -278.5t-342 -94.5h-223q-28 0 -37 -18v-129q0 -19 24 -35t53 -24.5t53 -20t24 -23.5t-8.5 -31.5t-24.5 -19.5h-647zM600 434q13 -22 86 -22q106 0 163.5 56t57.5 163q0 148 -57 205t-164 57q-74 0 -86 -25v-434z" />
    <glyph glyph-name="germandbls" unicode="&#xdf;" horiz-adv-x="1386" 
d="M846 -31q-102 0 -175 39t-73 96q0 49 40 125t79 76q18 0 28 -18.5t12.5 -46.5t9.5 -60t16.5 -60t35 -46.5t64.5 -18.5q65 0 96 44.5t31 103.5q0 50 -19.5 90t-51 66.5t-69.5 49.5t-76.5 45.5t-70 48t-51 64t-19.5 86.5q0 76 92 164l129 133q28 31 40 52t12 47
q0 52 -30.5 81t-86.5 29q-74 0 -130 -33.5t-88 -91t-47.5 -127t-15.5 -149.5v-678q0 -80 -69 -80h-410q-16 0 -24.5 15.5t-8.5 27.5q0 11 22 21.5t49 18.5t49 22.5t22 33.5v338q0 156 55 300t147.5 250t222.5 169.5t273 63.5q262 0 262 -125q0 -17 -4.5 -34t-8.5 -28
t-17 -28t-18.5 -23t-24.5 -26t-23 -25l-70 -74q-28 -28 -28 -57q0 -30 31.5 -59t78.5 -51.5t102 -54t102 -65.5t78.5 -88t31.5 -119q0 -76 -40.5 -154t-107 -140t-161 -101t-193.5 -39z" />
    <glyph glyph-name="agrave" unicode="&#xe0;" horiz-adv-x="1241" 
d="M332 -31q-128 0 -204.5 73t-76.5 198q0 50 10.5 83t39 53.5t49 29t70.5 22.5q9 3 13 4l412 121q25 6 36 18.5t11 38.5v156q0 70 -43 111t-117 41q-75 0 -75 -46q0 -12 21.5 -49t21.5 -80q0 -89 -72 -148.5t-170 -59.5q-135 0 -135 129q0 140 152.5 236.5t377.5 96.5
q78 0 141 -13t105 -33.5t73 -51.5t47.5 -60.5t26.5 -67t12.5 -65t2.5 -59.5v-325q0 -70 57 -70q26 0 65.5 13.5t49.5 13.5q16 0 16 -25q0 -68 -58 -132.5t-149.5 -104.5t-183.5 -40q-42 0 -66 8t-32 17.5t-17 28.5l-30 82q-5 20 -17 20q-10 0 -30.5 -17t-50 -41t-67.5 -48
t-95 -41t-121 -17zM383 1348q0 42 28 75t76 33q70 0 134 -86l174 -227q25 -36 12 -49l-21 -25q-10 -9 -14.5 -12t-13 -3t-19.5 7l-264 158q-49 30 -70.5 59.5t-21.5 69.5zM438 313q0 -74 30.5 -118.5t98.5 -44.5q32 0 65 16t48 31q12 12 12 36v203q0 12 -11.5 19.5
t-31.5 1.5l-141 -45q-40 -10 -55 -28t-15 -71z" />
    <glyph glyph-name="aacute" unicode="&#xe1;" horiz-adv-x="1241" 
d="M332 -31q-128 0 -204.5 73t-76.5 198q0 50 10.5 83t39 53.5t49 29t70.5 22.5q9 3 13 4l412 121q25 6 36 18.5t11 38.5v156q0 70 -43 111t-117 41q-75 0 -75 -46q0 -12 21.5 -49t21.5 -80q0 -89 -72 -148.5t-170 -59.5q-135 0 -135 129q0 140 152.5 236.5t377.5 96.5
q78 0 141 -13t105 -33.5t73 -51.5t47.5 -60.5t26.5 -67t12.5 -65t2.5 -59.5v-325q0 -70 57 -70q26 0 65.5 13.5t49.5 13.5q16 0 16 -25q0 -68 -58 -132.5t-149.5 -104.5t-183.5 -40q-42 0 -66 8t-32 17.5t-17 28.5l-30 82q-5 20 -17 20q-10 0 -30.5 -17t-50 -41t-67.5 -48
t-95 -41t-121 -17zM387 1094q-13 13 12 49l174 227q64 86 134 86q48 0 76 -33t28 -75q0 -40 -21.5 -69.5t-70.5 -59.5l-264 -158q-11 -7 -19.5 -7t-13 3t-14.5 12zM438 313q0 -74 30.5 -118.5t98.5 -44.5q32 0 65 16t48 31q12 12 12 36v203q0 12 -11.5 19.5t-31.5 1.5
l-141 -45q-40 -10 -55 -28t-15 -71z" />
    <glyph glyph-name="acircumflex" unicode="&#xe2;" horiz-adv-x="1241" 
d="M332 -31q-128 0 -204.5 73t-76.5 198q0 50 10.5 83t39 53.5t49 29t70.5 22.5q9 3 13 4l412 121q25 6 36 18.5t11 38.5v156q0 70 -43 111t-117 41q-75 0 -75 -46q0 -12 21.5 -49t21.5 -80q0 -89 -72 -148.5t-170 -59.5q-135 0 -135 129q0 140 152.5 236.5t377.5 96.5
q78 0 141 -13t105 -33.5t73 -51.5t47.5 -60.5t26.5 -67t12.5 -65t2.5 -59.5v-325q0 -70 57 -70q26 0 65.5 13.5t49.5 13.5q16 0 16 -25q0 -68 -58 -132.5t-149.5 -104.5t-183.5 -40q-42 0 -66 8t-32 17.5t-17 28.5l-30 82q-5 20 -17 20q-10 0 -30.5 -17t-50 -41t-67.5 -48
t-95 -41t-121 -17zM301 1133l180 204q19 27 49 27h136q26 0 49 -27l178 -204q9 -11 6.5 -22t-14.5 -11h-129q-40 0 -56 20l-86 88q-20 26 -43 0l-92 -88q-20 -20 -51 -20h-119q-12 0 -14.5 11t6.5 22zM438 313q0 -74 30.5 -118.5t98.5 -44.5q32 0 65 16t48 31q12 12 12 36
v203q0 12 -11.5 19.5t-31.5 1.5l-141 -45q-40 -10 -55 -28t-15 -71z" />
    <glyph glyph-name="atilde" unicode="&#xe3;" horiz-adv-x="1241" 
d="M332 -31q-128 0 -204.5 73t-76.5 198q0 50 10.5 83t39 53.5t49 29t70.5 22.5q9 3 13 4l412 121q25 6 36 18.5t11 38.5v156q0 70 -43 111t-117 41q-75 0 -75 -46q0 -12 21.5 -49t21.5 -80q0 -89 -72 -148.5t-170 -59.5q-135 0 -135 129q0 140 152.5 236.5t377.5 96.5
q78 0 141 -13t105 -33.5t73 -51.5t47.5 -60.5t26.5 -67t12.5 -65t2.5 -59.5v-325q0 -70 57 -70q26 0 65.5 13.5t49.5 13.5q16 0 16 -25q0 -68 -58 -132.5t-149.5 -104.5t-183.5 -40q-42 0 -66 8t-32 17.5t-17 28.5l-30 82q-5 20 -17 20q-10 0 -30.5 -17t-50 -41t-67.5 -48
t-95 -41t-121 -17zM270 1171q7 93 66.5 147t146.5 46q46 -4 90.5 -34t82.5 -59.5t69 -31.5q50 -3 53 47q3 31 31 31h86q15 0 24 -10.5t7 -24.5q-7 -94 -68 -148.5t-145 -46.5q-36 3 -73.5 22t-63.5 41t-57.5 41t-55.5 21q-21 2 -35.5 -10.5t-15.5 -36.5q-3 -30 -29 -30h-86
q-13 0 -21 10.5t-6 25.5zM438 313q0 -74 30.5 -118.5t98.5 -44.5q32 0 65 16t48 31q12 12 12 36v203q0 12 -11.5 19.5t-31.5 1.5l-141 -45q-40 -10 -55 -28t-15 -71z" />
    <glyph glyph-name="adieresis" unicode="&#xe4;" horiz-adv-x="1241" 
d="M332 -31q-128 0 -204.5 73t-76.5 198q0 50 10.5 83t39 53.5t49 29t70.5 22.5q9 3 13 4l412 121q25 6 36 18.5t11 38.5v156q0 70 -43 111t-117 41q-75 0 -75 -46q0 -12 21.5 -49t21.5 -80q0 -89 -72 -148.5t-170 -59.5q-135 0 -135 129q0 140 152.5 236.5t377.5 96.5
q78 0 141 -13t105 -33.5t73 -51.5t47.5 -60.5t26.5 -67t12.5 -65t2.5 -59.5v-325q0 -70 57 -70q26 0 65.5 13.5t49.5 13.5q16 0 16 -25q0 -68 -58 -132.5t-149.5 -104.5t-183.5 -40q-42 0 -66 8t-32 17.5t-17 28.5l-30 82q-5 20 -17 20q-10 0 -30.5 -17t-50 -41t-67.5 -48
t-95 -41t-121 -17zM276 1237q0 51 36 88t87 37t89 -37t38 -88t-38 -87t-89 -36t-87 36t-36 87zM438 313q0 -74 30.5 -118.5t98.5 -44.5q32 0 65 16t48 31q12 12 12 36v203q0 12 -11.5 19.5t-31.5 1.5l-141 -45q-40 -10 -55 -28t-15 -71zM668 1237q0 51 38 88t89 37
q50 0 86.5 -37t36.5 -88t-36.5 -87t-86.5 -36q-51 0 -89 36t-38 87z" />
    <glyph glyph-name="aring" unicode="&#xe5;" horiz-adv-x="1241" 
d="M332 -31q-128 0 -204.5 73t-76.5 198q0 50 10.5 83t39 53.5t49 29t70.5 22.5q9 3 13 4l412 121q25 6 36 18.5t11 38.5v156q0 70 -43 111t-117 41q-75 0 -75 -46q0 -12 21.5 -49t21.5 -80q0 -89 -72 -148.5t-170 -59.5q-135 0 -135 129q0 102 85.5 184t227.5 121
q-90 68 -90 184q0 100 73 169t187 69q115 0 188.5 -69t73.5 -169t-71 -168q264 -53 264 -338v-325q0 -70 57 -70q26 0 65.5 13.5t49.5 13.5q16 0 16 -25q0 -68 -58 -132.5t-149.5 -104.5t-183.5 -40q-42 0 -66 8t-32 17.5t-17 28.5l-30 82q-5 20 -17 20q-10 0 -30.5 -17
t-50 -41t-67.5 -48t-95 -41t-121 -17zM438 313q0 -74 30.5 -118.5t98.5 -44.5q32 0 65 16t48 31q12 12 12 36v203q0 12 -11.5 19.5t-31.5 1.5l-141 -45q-40 -10 -55 -28t-15 -71zM494 1153q0 -54 30.5 -87.5t81.5 -33.5q53 0 84 33t31 88q0 57 -30.5 90t-84.5 33
q-51 0 -81.5 -33t-30.5 -90z" />
    <glyph glyph-name="ae" unicode="&#xe6;" horiz-adv-x="1814" 
d="M332 -25q-129 0 -205 69.5t-76 195.5q0 50 10.5 83t39 53.5t49 29t70.5 22.5q9 3 13 4l412 121q27 8 37 19.5t10 37.5v152q0 73 -43 114.5t-117 41.5q-75 0 -75 -46q0 -14 21.5 -50t21.5 -79q0 -90 -71.5 -149t-170.5 -59q-135 0 -135 131q0 139 152 235t378 96
q207 0 291 -77q132 77 303 77q201 0 334 -100.5t133 -243.5q0 -28 -5.5 -46.5t-16.5 -26t-19.5 -9.5t-21.5 -2h-547q-11 0 -17.5 -2t-12 -13t-5.5 -32q0 -50 19.5 -98.5t56.5 -91t100 -68.5t141 -26q187 0 295 120q4 5 15.5 18.5t16 18t13 12.5t14.5 10.5t13 2.5
q27 0 27 -45q0 -37 -16 -85t-55 -105.5t-95.5 -104.5t-148.5 -79t-203 -32q-113 0 -219 32.5t-187 96.5q-7 5 -19 15t-18 14l-15 10t-17 8t-17 2q-30 0 -77 -27t-92.5 -59t-119 -59t-149.5 -27zM436 313q0 -73 31.5 -118t99.5 -45q38 0 83.5 24t60.5 45q20 25 2 86
q-17 54 -23 129q-7 29 -41 19l-143 -41q-39 -8 -54.5 -27t-15.5 -72zM1059 717q0 -24 7.5 -37t14 -14.5t17.5 -1.5h188q12 0 18.5 1t16 7t14 21.5t4.5 41.5q0 76 -40 132.5t-101 56.5q-48 0 -81.5 -42t-45.5 -86.5t-12 -78.5z" />
    <glyph glyph-name="ccedilla" unicode="&#xe7;" horiz-adv-x="1146" 
d="M596 -457q-93 0 -168.5 39t-75.5 86q0 15 8.5 30t26.5 15q17 0 37.5 -16.5t52 -33.5t76.5 -17q43 0 69.5 23t26.5 65q0 80 -92 80q-16 0 -35.5 -2t-27.5 -2q-50 0 -37 43l41 120q-96 11 -178.5 44.5t-148.5 89.5t-104 142.5t-38 194.5q0 110 40.5 210t113 176.5
t181 121.5t236.5 45q188 0 316 -86t128 -211q0 -69 -41.5 -106t-115.5 -37q-54 0 -93 20t-60.5 52.5t-37 71t-28.5 77.5t-29 71.5t-45 52.5t-70 20q-141 0 -141 -222q0 -236 90 -341t258 -105q63 0 115 12.5t89 35.5t59 43t44 46q23 29 52 29q28 0 28 -45q0 -33 -15 -78.5
t-52 -100t-89.5 -101t-137 -81.5t-185.5 -43l-23 -65h50q96 0 152 -37t56 -107q0 -88 -80 -153.5t-198 -65.5z" />
    <glyph glyph-name="egrave" unicode="&#xe8;" horiz-adv-x="1153" 
d="M600 -31q-85 0 -165 17.5t-154.5 56.5t-130 95.5t-88.5 141t-33 185.5q0 110 40.5 207.5t112.5 169t176.5 113.5t227.5 42q201 0 334 -100.5t133 -243.5q0 -28 -5.5 -46.5t-16.5 -26t-20 -9.5t-22 -2h-547q-11 0 -17 -2t-11.5 -13t-5.5 -32q0 -50 19.5 -98.5t56.5 -91
t100 -68.5t141 -26q187 0 295 120q4 5 15.5 18.5t16 18t13 12.5t14.5 10.5t13 2.5q26 0 26 -45q0 -37 -16 -85t-55 -105.5t-95.5 -104.5t-148.5 -79t-203 -32zM344 1348q0 42 28.5 75t76.5 33q69 0 133 -86l174 -227q25 -36 12 -49l-20 -25q-14 -13 -21 -14.5t-27 6.5
l-264 158q-49 30 -70.5 59.5t-21.5 69.5zM397 717q0 -24 7.5 -37t14 -14.5t17.5 -1.5h189q12 0 18.5 1t16 7t14 21.5t4.5 41.5q0 76 -40 132.5t-101 56.5q-36 0 -65 -24t-44.5 -59.5t-23 -67.5t-7.5 -56z" />
    <glyph glyph-name="eacute" unicode="&#xe9;" horiz-adv-x="1153" 
d="M600 -31q-85 0 -165 17.5t-154.5 56.5t-130 95.5t-88.5 141t-33 185.5q0 110 40.5 207.5t112.5 169t176.5 113.5t227.5 42q201 0 334 -100.5t133 -243.5q0 -28 -5.5 -46.5t-16.5 -26t-20 -9.5t-22 -2h-547q-11 0 -17 -2t-11.5 -13t-5.5 -32q0 -50 19.5 -98.5t56.5 -91
t100 -68.5t141 -26q187 0 295 120q4 5 15.5 18.5t16 18t13 12.5t14.5 10.5t13 2.5q26 0 26 -45q0 -37 -16 -85t-55 -105.5t-95.5 -104.5t-148.5 -79t-203 -32zM350 1094q-13 13 12 49l175 227q64 86 133 86q48 0 76 -33t28 -75q0 -40 -21.5 -69.5t-70.5 -59.5l-264 -158
q-11 -7 -19.5 -7t-13 3t-14.5 12zM397 717q0 -24 7.5 -37t14 -14.5t17.5 -1.5h189q12 0 18.5 1t16 7t14 21.5t4.5 41.5q0 76 -40 132.5t-101 56.5q-36 0 -65 -24t-44.5 -59.5t-23 -67.5t-7.5 -56z" />
    <glyph glyph-name="ecircumflex" unicode="&#xea;" horiz-adv-x="1153" 
d="M600 -31q-85 0 -165 17.5t-154.5 56.5t-130 95.5t-88.5 141t-33 185.5q0 110 40.5 207.5t112.5 169t176.5 113.5t227.5 42q201 0 334 -100.5t133 -243.5q0 -28 -5.5 -46.5t-16.5 -26t-20 -9.5t-22 -2h-547q-11 0 -17 -2t-11.5 -13t-5.5 -32q0 -50 19.5 -98.5t56.5 -91
t100 -68.5t141 -26q187 0 295 120q4 5 15.5 18.5t16 18t13 12.5t14.5 10.5t13 2.5q26 0 26 -45q0 -37 -16 -85t-55 -105.5t-95.5 -104.5t-148.5 -79t-203 -32zM262 1133l180 204q19 27 50 27h135q26 0 49 -27l178 -204q9 -11 6.5 -22t-14.5 -11h-129q-39 0 -55 20l-87 88
q-20 26 -43 0l-92 -88q-20 -20 -51 -20h-119q-12 0 -14.5 11t6.5 22zM397 717q0 -24 7.5 -37t14 -14.5t17.5 -1.5h189q12 0 18.5 1t16 7t14 21.5t4.5 41.5q0 76 -40 132.5t-101 56.5q-36 0 -65 -24t-44.5 -59.5t-23 -67.5t-7.5 -56z" />
    <glyph glyph-name="edieresis" unicode="&#xeb;" horiz-adv-x="1153" 
d="M600 -31q-85 0 -165 17.5t-154.5 56.5t-130 95.5t-88.5 141t-33 185.5q0 110 40.5 207.5t112.5 169t176.5 113.5t227.5 42q201 0 334 -100.5t133 -243.5q0 -28 -5.5 -46.5t-16.5 -26t-20 -9.5t-22 -2h-547q-11 0 -17 -2t-11.5 -13t-5.5 -32q0 -50 19.5 -98.5t56.5 -91
t100 -68.5t141 -26q187 0 295 120q4 5 15.5 18.5t16 18t13 12.5t14.5 10.5t13 2.5q26 0 26 -45q0 -37 -16 -85t-55 -105.5t-95.5 -104.5t-148.5 -79t-203 -32zM238 1237q0 51 35.5 88t86.5 37t89 -37t38 -88t-38 -87t-89 -36t-86.5 36t-35.5 87zM397 717q0 -24 7.5 -37
t14 -14.5t17.5 -1.5h189q12 0 18.5 1t16 7t14 21.5t4.5 41.5q0 76 -40 132.5t-101 56.5q-36 0 -65 -24t-44.5 -59.5t-23 -67.5t-7.5 -56zM629 1237q0 51 38 88t89 37q50 0 86.5 -37t36.5 -88t-36.5 -87t-86.5 -36q-51 0 -89 36t-38 87z" />
    <glyph glyph-name="igrave" unicode="&#xec;" 
d="M49 0q-16 0 -24.5 15.5t-8.5 27.5q0 11 22 22t49 18.5t49 22t22 33.5v594q0 19 -22 34t-49 22.5t-49 18.5t-22 23q0 36 33 41q19 3 81.5 12t78 11.5t59.5 11t64.5 16t52 20t61.5 28.5q37 22 60 22q9 0 15.5 -7t6.5 -21v-826q0 -19 22 -33.5t48 -22t48 -18.5t22 -22
q0 -12 -8.5 -27.5t-24.5 -15.5h-586zM129 1348q0 42 28 75t76 33q70 0 134 -86l174 -227q25 -36 12 -49l-21 -25q-10 -9 -14.5 -12t-13 -3t-19.5 7l-264 158q-49 30 -70.5 59.5t-21.5 69.5z" />
    <glyph glyph-name="iacute" unicode="&#xed;" 
d="M49 0q-16 0 -24.5 15.5t-8.5 27.5q0 11 22 22t49 18.5t49 22t22 33.5v594q0 19 -22 34t-49 22.5t-49 18.5t-22 23q0 36 33 41q19 3 81.5 12t78 11.5t59.5 11t64.5 16t52 20t61.5 28.5q37 22 60 22q9 0 15.5 -7t6.5 -21v-826q0 -19 22 -33.5t48 -22t48 -18.5t22 -22
q0 -12 -8.5 -27.5t-24.5 -15.5h-586zM133 1094q-13 13 12 49l174 227q64 86 134 86q48 0 76 -33t28 -75q0 -40 -21.5 -69.5t-70.5 -59.5l-264 -158q-11 -7 -19.5 -7t-13 3t-14.5 12z" />
    <glyph glyph-name="icircumflex" unicode="&#xee;" 
d="M49 0q-16 0 -24.5 15.5t-8.5 27.5q0 11 22 22t49 18.5t49 22t22 33.5v594q0 19 -22 34t-49 22.5t-49 18.5t-22 23q0 36 33 41q19 3 81.5 12t78 11.5t59.5 11t64.5 16t52 20t61.5 28.5q37 22 60 22q9 0 15.5 -7t6.5 -21v-826q0 -19 22 -33.5t48 -22t48 -18.5t22 -22
q0 -12 -8.5 -27.5t-24.5 -15.5h-586zM47 1133l180 204q19 27 49 27h136q26 0 49 -27l178 -204q9 -11 6.5 -22t-14.5 -11h-129q-40 0 -56 20l-86 88q-20 26 -43 0l-92 -88q-20 -20 -51 -20h-119q-12 0 -14.5 11t6.5 22z" />
    <glyph glyph-name="idieresis" unicode="&#xef;" 
d="M49 0q-16 0 -24.5 15.5t-8.5 27.5q0 11 22 22t49 18.5t49 22t22 33.5v594q0 19 -22 34t-49 22.5t-49 18.5t-22 23q0 36 33 41q19 3 81.5 12t78 11.5t59.5 11t64.5 16t52 20t61.5 28.5q37 22 60 22q9 0 15.5 -7t6.5 -21v-826q0 -19 22 -33.5t48 -22t48 -18.5t22 -22
q0 -12 -8.5 -27.5t-24.5 -15.5h-586zM23 1237q0 51 35.5 88t86.5 37t89 -37t38 -88t-38 -87t-89 -36t-86.5 36t-35.5 87zM414 1237q0 51 38 88t89 37q50 0 86.5 -37t36.5 -88t-36.5 -87t-86.5 -36q-51 0 -89 36t-38 87z" />
    <glyph glyph-name="eth" unicode="&#xf0;" horiz-adv-x="1204" 
d="M608 -31q-76 0 -152.5 15.5t-154.5 53.5t-137.5 93.5t-97 143.5t-37.5 196q0 90 32.5 167.5t85.5 131t121.5 92t140 56.5t140.5 18q112 0 211 -64q19 -12 26.5 -6t-0.5 25q-63 156 -227 266l-172 -92q-11 -7 -23.5 -3.5t-17.5 13.5l-22 41q-5 11 -1.5 22t13.5 17l119 64
q-52 27 -156 69q-42 16 -62 29t-20 31q0 40 113 38q147 -3 307 -69l182 98q11 6 22 2.5t17 -14.5l21 -39q13 -25 -11 -39l-118 -63q188 -109 306 -286.5t118 -400.5q0 -121 -40 -230.5t-112 -193t-179.5 -133t-234.5 -49.5zM414 643q0 -141 30.5 -276.5t90.5 -228.5t133 -93
q120 0 120 234q0 128 -29.5 263.5t-89 235t-132.5 99.5q-62 0 -92.5 -61t-30.5 -173z" />
    <glyph glyph-name="ntilde" unicode="&#xf1;" horiz-adv-x="1349" 
d="M49 0q-16 0 -24.5 15.5t-8.5 27.5q0 11 22 22t49 18.5t49 22t22 33.5v592q0 19 -22 34t-49 22.5t-49 18.5t-22 23q0 13 7 25.5t24 15.5q33 6 102.5 17t102 17t83 21t95.5 36q50 22 59 22q25 0 25 -27v-192q0 -10 8.5 -13.5t20.5 7.5q3 3 30.5 36.5t58 63t75 64t103 55
t120.5 20.5q115 0 189.5 -71.5t74.5 -220.5v-566q0 -19 21.5 -33.5t48 -22t48 -18.5t21.5 -22q0 -12 -8.5 -27.5t-24.5 -15.5h-559q-15 0 -23.5 15.5t-8.5 27.5q0 11 18 21.5t39 18.5t39 22.5t18 33.5v502q0 141 -108 141q-65 0 -126 -56t-61 -136v-451q0 -19 18 -33.5
t39.5 -22.5t39.5 -18.5t18 -21.5t-9 -27t-24 -16h-561zM348 1171q7 93 66.5 147t146.5 46q46 -4 90.5 -34t82.5 -59.5t69 -31.5q50 -3 53 47q3 31 31 31h86q15 0 24 -10.5t7 -24.5q-7 -94 -68 -148.5t-145 -46.5q-36 3 -73.5 22t-63.5 41t-57.5 41t-55.5 21q-21 2 -36 -10.5
t-16 -36.5q-3 -30 -28 -30h-86q-13 0 -21 10.5t-6 25.5z" />
    <glyph glyph-name="ograve" unicode="&#xf2;" horiz-adv-x="1200" 
d="M604 -31q-79 0 -157 16t-154 53t-134 92t-94 139.5t-36 187.5q0 108 39.5 205.5t110.5 172t179.5 118.5t237.5 44q79 0 156.5 -15.5t154.5 -52t134.5 -90.5t93.5 -138t36 -187q0 -109 -39.5 -207.5t-110.5 -173.5t-179.5 -119.5t-237.5 -44.5zM385 1348q0 42 28 75t76 33
q70 0 134 -86l174 -227q25 -36 12 -49l-21 -25q-10 -9 -14.5 -12t-13 -3t-19.5 7l-264 158q-49 30 -70.5 59.5t-21.5 69.5zM416 715q0 -144 29.5 -295.5t89 -263t133.5 -111.5q65 0 90.5 53t25.5 156q0 146 -29.5 297.5t-89 263t-133.5 111.5q-65 0 -90.5 -53.5
t-25.5 -157.5z" />
    <glyph glyph-name="oacute" unicode="&#xf3;" horiz-adv-x="1200" 
d="M604 -31q-79 0 -157 16t-154 53t-134 92t-94 139.5t-36 187.5q0 108 39.5 205.5t110.5 172t179.5 118.5t237.5 44q79 0 156.5 -15.5t154.5 -52t134.5 -90.5t93.5 -138t36 -187q0 -109 -39.5 -207.5t-110.5 -173.5t-179.5 -119.5t-237.5 -44.5zM391 1094q-13 13 12 49
l175 227q64 86 133 86q48 0 76 -33t28 -75q0 -40 -21.5 -69.5t-70.5 -59.5l-264 -158q-11 -7 -19.5 -7t-13 3t-14.5 12zM416 715q0 -144 29.5 -295.5t89 -263t133.5 -111.5q65 0 90.5 53t25.5 156q0 146 -29.5 297.5t-89 263t-133.5 111.5q-65 0 -90.5 -53.5t-25.5 -157.5z
" />
    <glyph glyph-name="ocircumflex" unicode="&#xf4;" horiz-adv-x="1200" 
d="M604 -31q-79 0 -157 16t-154 53t-134 92t-94 139.5t-36 187.5q0 108 39.5 205.5t110.5 172t179.5 118.5t237.5 44q79 0 156.5 -15.5t154.5 -52t134.5 -90.5t93.5 -138t36 -187q0 -109 -39.5 -207.5t-110.5 -173.5t-179.5 -119.5t-237.5 -44.5zM303 1133l180 204
q19 27 49 27h136q26 0 49 -27l178 -204q9 -11 6.5 -22t-14.5 -11h-129q-40 0 -56 20l-86 88q-20 26 -43 0l-92 -88q-20 -20 -51 -20h-119q-12 0 -14.5 11t6.5 22zM416 715q0 -144 29.5 -295.5t89 -263t133.5 -111.5q65 0 90.5 53t25.5 156q0 146 -29.5 297.5t-89 263
t-133.5 111.5q-65 0 -90.5 -53.5t-25.5 -157.5z" />
    <glyph glyph-name="otilde" unicode="&#xf5;" horiz-adv-x="1200" 
d="M604 -31q-79 0 -157 16t-154 53t-134 92t-94 139.5t-36 187.5q0 108 39.5 205.5t110.5 172t179.5 118.5t237.5 44q79 0 156.5 -15.5t154.5 -52t134.5 -90.5t93.5 -138t36 -187q0 -109 -39.5 -207.5t-110.5 -173.5t-179.5 -119.5t-237.5 -44.5zM272 1171q7 93 66.5 147
t146.5 46q46 -4 90.5 -34t82.5 -59.5t69 -31.5q50 -3 53 47q3 31 31 31h86q15 0 24 -10.5t7 -24.5q-7 -94 -68 -148.5t-145 -46.5q-36 3 -73.5 22t-63.5 41t-57.5 41t-55.5 21q-21 2 -35.5 -10.5t-15.5 -36.5q-3 -30 -29 -30h-86q-13 0 -21 10.5t-6 25.5zM416 715
q0 -144 29.5 -295.5t89 -263t133.5 -111.5q65 0 90.5 53t25.5 156q0 146 -29.5 297.5t-89 263t-133.5 111.5q-65 0 -90.5 -53.5t-25.5 -157.5z" />
    <glyph glyph-name="odieresis" unicode="&#xf6;" horiz-adv-x="1200" 
d="M604 -31q-79 0 -157 16t-154 53t-134 92t-94 139.5t-36 187.5q0 108 39.5 205.5t110.5 172t179.5 118.5t237.5 44q79 0 156.5 -15.5t154.5 -52t134.5 -90.5t93.5 -138t36 -187q0 -109 -39.5 -207.5t-110.5 -173.5t-179.5 -119.5t-237.5 -44.5zM281 1237q0 51 35.5 88
t86.5 37t89 -37t38 -88t-38 -87t-89 -36t-86.5 36t-35.5 87zM416 715q0 -144 29.5 -295.5t89 -263t133.5 -111.5q65 0 90.5 53t25.5 156q0 146 -29.5 297.5t-89 263t-133.5 111.5q-65 0 -90.5 -53.5t-25.5 -157.5zM672 1237q0 51 38 88t89 37q50 0 86.5 -37t36.5 -88
t-36.5 -87t-86.5 -36q-51 0 -89 36t-38 87z" />
    <glyph glyph-name="divide" unicode="&#xf7;" horiz-adv-x="1249" 
d="M625 741q-57 0 -102.5 34t-45.5 95q0 59 39.5 100.5t104.5 41.5q57 0 103 -33.5t46 -93.5q0 -61 -39.5 -102.5t-105.5 -41.5zM154 440v144q0 19 11 31t30 12h860q19 0 30 -12t11 -31v-144q0 -19 -11 -31t-30 -12h-860q-19 0 -30 12t-11 31zM477 141q0 59 39.5 100.5
t104.5 41.5q57 0 103 -33.5t46 -93.5q0 -61 -39.5 -102.5t-105.5 -41.5q-57 0 -102.5 34t-45.5 95z" />
    <glyph glyph-name="oslash" unicode="&#xf8;" horiz-adv-x="1200" 
d="M307 -127q-22 11 -12 39l45 104q-139 55 -225 164.5t-86 276.5q0 108 39.5 205.5t110.5 172t179.5 118.5t237.5 44q82 0 168 -18l51 119q9 26 41 12l35 -16q24 -10 12 -35l-47 -107q141 -52 228 -160.5t87 -277.5q0 -109 -39.5 -207.5t-110.5 -173.5t-179.5 -119.5
t-237.5 -44.5q-78 0 -168 19l-51 -119q-11 -25 -41 -12zM416 715q0 -204 55 -400l209 473q-66 138 -148 138q-65 0 -90.5 -53.5t-25.5 -157.5zM520 180q68 -135 148 -135q65 0 90.5 53t25.5 156q0 203 -55 403z" />
    <glyph glyph-name="ugrave" unicode="&#xf9;" horiz-adv-x="1335" 
d="M410 -29q-119 0 -188.5 71.5t-69.5 221.5v471q0 19 -22 33.5t-49 22t-49 18t-22 22.5t8 25t27 16q17 2 68 8.5t79 11t72.5 13.5t85 23t80.5 33q49 24 68 24q22 0 22 -29v-557q0 -33 5 -64t18.5 -65t43 -54.5t72.5 -20.5q61 0 105.5 46t44.5 101v393q0 19 -22 33.5
t-48.5 22t-48.5 18t-22 22.5q0 11 8 24.5t24 16.5q18 3 80.5 11t100.5 14.5t97 23t109 40.5q52 24 68 24q23 0 23 -29v-817q0 -19 22 -33.5t48.5 -22t48.5 -18.5t22 -22t-9 -27t-24 -16h-387q-51 0 -59 49l-17 135q-2 10 -9 12.5t-19 -6.5q-2 -2 -27 -29t-44 -46t-57 -48.5
t-73.5 -48t-84.5 -33t-99 -14.5zM498 1348q0 42 28 75t76 33q69 0 133 -86l174 -227q26 -36 13 -49l-21 -25q-10 -9 -14.5 -12t-13 -3t-19.5 7l-264 158q-49 30 -70.5 59.5t-21.5 69.5z" />
    <glyph glyph-name="uacute" unicode="&#xfa;" horiz-adv-x="1335" 
d="M410 -29q-119 0 -188.5 71.5t-69.5 221.5v471q0 19 -22 33.5t-49 22t-49 18t-22 22.5t8 25t27 16q17 2 68 8.5t79 11t72.5 13.5t85 23t80.5 33q49 24 68 24q22 0 22 -29v-557q0 -33 5 -64t18.5 -65t43 -54.5t72.5 -20.5q61 0 105.5 46t44.5 101v393q0 19 -22 33.5
t-48.5 22t-48.5 18t-22 22.5q0 11 8 24.5t24 16.5q18 3 80.5 11t100.5 14.5t97 23t109 40.5q52 24 68 24q23 0 23 -29v-817q0 -19 22 -33.5t48.5 -22t48.5 -18.5t22 -22t-9 -27t-24 -16h-387q-51 0 -59 49l-17 135q-2 10 -9 12.5t-19 -6.5q-2 -2 -27 -29t-44 -46t-57 -48.5
t-73.5 -48t-84.5 -33t-99 -14.5zM504 1094q-13 13 12 49l174 227q64 86 133 86q48 0 76.5 -33t28.5 -75q0 -40 -21.5 -69.5t-70.5 -59.5l-265 -158q-11 -7 -19.5 -7t-13 3t-14.5 12z" />
    <glyph glyph-name="ucircumflex" unicode="&#xfb;" horiz-adv-x="1335" 
d="M410 -29q-119 0 -188.5 71.5t-69.5 221.5v471q0 19 -22 33.5t-49 22t-49 18t-22 22.5t8 25t27 16q17 2 68 8.5t79 11t72.5 13.5t85 23t80.5 33q49 24 68 24q22 0 22 -29v-557q0 -33 5 -64t18.5 -65t43 -54.5t72.5 -20.5q61 0 105.5 46t44.5 101v393q0 19 -22 33.5
t-48.5 22t-48.5 18t-22 22.5q0 11 8 24.5t24 16.5q18 3 80.5 11t100.5 14.5t97 23t109 40.5q52 24 68 24q23 0 23 -29v-817q0 -19 22 -33.5t48.5 -22t48.5 -18.5t22 -22t-9 -27t-24 -16h-387q-51 0 -59 49l-17 135q-2 10 -9 12.5t-19 -6.5q-2 -2 -27 -29t-44 -46t-57 -48.5
t-73.5 -48t-84.5 -33t-99 -14.5zM418 1133l180 204q19 27 49 27h135q26 0 49 -27l179 -204q9 -11 6 -22t-15 -11h-129q-39 0 -55 20l-86 88q-20 26 -43 0l-92 -88q-20 -20 -51 -20h-119q-12 0 -14.5 11t6.5 22z" />
    <glyph glyph-name="udieresis" unicode="&#xfc;" horiz-adv-x="1335" 
d="M410 -29q-119 0 -188.5 71.5t-69.5 221.5v471q0 19 -22 33.5t-49 22t-49 18t-22 22.5t8 25t27 16q17 2 68 8.5t79 11t72.5 13.5t85 23t80.5 33q49 24 68 24q22 0 22 -29v-557q0 -33 5 -64t18.5 -65t43 -54.5t72.5 -20.5q61 0 105.5 46t44.5 101v393q0 19 -22 33.5
t-48.5 22t-48.5 18t-22 22.5q0 11 8 24.5t24 16.5q18 3 80.5 11t100.5 14.5t97 23t109 40.5q52 24 68 24q23 0 23 -29v-817q0 -19 22 -33.5t48.5 -22t48.5 -18.5t22 -22t-9 -27t-24 -16h-387q-51 0 -59 49l-17 135q-2 10 -9 12.5t-19 -6.5q-2 -2 -27 -29t-44 -46t-57 -48.5
t-73.5 -48t-84.5 -33t-99 -14.5zM393 1237q0 51 36 88t87 37t89 -37t38 -88t-38 -87t-89 -36t-87 36t-36 87zM784 1237q0 51 38 88t89 37q50 0 86.5 -37t36.5 -88t-36.5 -87t-86.5 -36q-51 0 -89 36t-38 87z" />
    <glyph glyph-name="yacute" unicode="&#xfd;" horiz-adv-x="1247" 
d="M285 -334q-91 0 -155 47t-64 131q0 82 51 133.5t141 51.5q35 0 64 -11t47.5 -26.5t35 -31.5t34 -27t36.5 -11q59 0 99 62.5t16 101.5l-457 766q-10 17 -47.5 29.5t-68.5 22t-31 22.5t8 29t24 16h598q15 0 24 -16t9 -27q0 -14 -33 -27t-58 -29t-11 -38l217 -381
q10 -13 21.5 -12t19.5 12l106 204q21 41 2 78l-63 117q-10 18 -70.5 38.5t-60.5 37.5q0 11 9 27t24 16h503q16 0 24.5 -16t8.5 -29q0 -12 -28 -22.5t-64 -27t-51 -42.5l-426 -766q-3 -6 -27.5 -50t-35.5 -63.5t-40.5 -64t-50.5 -68.5t-56 -58.5t-66.5 -52.5t-73 -31.5
t-84.5 -13.5zM467 1094q-13 13 12 49l174 227q64 86 133 86q48 0 76.5 -33t28.5 -75q0 -40 -21.5 -69.5t-70.5 -59.5l-264 -158q-20 -8 -27 -6.5t-21 14.5z" />
    <glyph glyph-name="thorn" unicode="&#xfe;" horiz-adv-x="1275" 
d="M49 -307q-16 0 -24.5 15.5t-8.5 27.5q0 11 22 21.5t49 18t49 22.5t22 34v1352q0 20 -22 35t-49 22t-49 18.5t-22 24.5q0 33 33 37q150 21 234.5 44.5t165.5 80.5q2 1 10 6.5t14.5 9.5t15.5 7.5t15 3.5q24 0 24 -31v-594q0 -41 31 -29q18 8 39 30.5t43.5 46.5t53 48
t80 39.5t112.5 15.5q70 0 131.5 -24t110.5 -71t77.5 -127t28.5 -183q0 -171 -57.5 -312.5t-166 -226t-247.5 -84.5q-51 0 -91.5 12t-63.5 28.5t-39 33.5t-27 29t-19 12q-12 0 -12 -20v-234q0 -24 46 -41t92 -29.5t46 -27.5q0 -11 -8.5 -26t-23.5 -15h-615zM528 446
q0 -370 174 -370q146 0 146 258q0 67 -11.5 141.5t-35 147.5t-67 120.5t-99.5 47.5q-51 0 -79 -28t-28 -50v-267z" />
    <glyph glyph-name="ydieresis" unicode="&#xff;" horiz-adv-x="1247" 
d="M285 -334q-91 0 -155 47t-64 131q0 82 51 133.5t141 51.5q35 0 64 -11t47.5 -26.5t35 -31.5t34 -27t36.5 -11q59 0 99 62.5t16 101.5l-457 766q-10 17 -47.5 29.5t-68.5 22t-31 22.5t8 29t24 16h598q15 0 24 -16t9 -27q0 -14 -33 -27t-58 -29t-11 -38l217 -381
q10 -13 21.5 -12t19.5 12l106 204q21 41 2 78l-63 117q-10 18 -70.5 38.5t-60.5 37.5q0 11 9 27t24 16h503q16 0 24.5 -16t8.5 -29q0 -12 -28 -22.5t-64 -27t-51 -42.5l-426 -766q-3 -6 -27.5 -50t-35.5 -63.5t-40.5 -64t-50.5 -68.5t-56 -58.5t-66.5 -52.5t-73 -31.5
t-84.5 -13.5zM356 1237q0 51 36 88t87 37t89 -37t38 -88t-38 -87t-89 -36t-87 36t-36 87zM748 1237q0 51 37.5 88t88.5 37q50 0 86.5 -37t36.5 -88t-36.5 -87t-86.5 -36q-51 0 -88.5 36t-37.5 87z" />
    <glyph glyph-name="Amacron" unicode="&#x100;" horiz-adv-x="1488" 
d="M-39 0q-16 0 -24.5 19.5t-8.5 31.5q0 10 28.5 25t65.5 30.5t75.5 46.5t54.5 68l335 774q37 80 37 119q-2 26 -29.5 57.5t-54 55.5t-26.5 33q0 7 2 14t13 15.5t30 8.5q100 0 176 17.5t117.5 35t56.5 17.5t23.5 -8t17.5 -29l506 -1122q17 -38 53 -67.5t69 -42.5t58 -25.5
t25 -22.5q0 -11 -9 -31t-24 -20h-760q-16 0 -24.5 19.5t-8.5 31.5q0 10 20 18.5t48 15t55.5 13t44 15.5t12.5 20l-81 213q-11 25 -41 25h-410q-19 0 -25 -13l-10 -26q-8 -23 2 -43l76 -162q11 -22 54.5 -33.5t80.5 -19.5t37 -23q0 -12 -8 -31.5t-23 -19.5h-606zM410 1524
l10 84q1 13 11.5 21.5t23.5 8.5h463q38 0 32 -36l-12 -84q-5 -33 -35 -33h-461q-38 0 -32 39zM420 539q-5 -15 1.5 -22t16.5 -7h303q30 0 19 29l-142 360q-8 22 -22 22.5t-23 -22.5z" />
    <glyph glyph-name="amacron" unicode="&#x101;" horiz-adv-x="1241" 
d="M332 -31q-128 0 -204.5 73t-76.5 198q0 50 10.5 83t39 53.5t49 29t70.5 22.5q9 3 13 4l412 121q25 6 36 18.5t11 38.5v156q0 70 -43 111t-117 41q-75 0 -75 -46q0 -12 21.5 -49t21.5 -80q0 -89 -72 -148.5t-170 -59.5q-135 0 -135 129q0 140 152.5 236.5t377.5 96.5
q78 0 141 -13t105 -33.5t73 -51.5t47.5 -60.5t26.5 -67t12.5 -65t2.5 -59.5v-325q0 -70 57 -70q26 0 65.5 13.5t49.5 13.5q16 0 16 -25q0 -68 -58 -132.5t-149.5 -104.5t-183.5 -40q-42 0 -66 8t-32 17.5t-17 28.5l-30 82q-5 20 -17 20q-10 0 -30.5 -17t-50 -41t-67.5 -48
t-95 -41t-121 -17zM328 1180l10 84q1 13 11.5 21.5t23.5 8.5h463q38 0 32 -37l-12 -83q-5 -33 -35 -33h-461q-38 0 -32 39zM438 313q0 -74 30.5 -118.5t98.5 -44.5q32 0 65 16t48 31q12 12 12 36v203q0 12 -11.5 19.5t-31.5 1.5l-141 -45q-40 -10 -55 -28t-15 -71z" />
    <glyph glyph-name="Abreve" unicode="&#x102;" horiz-adv-x="1488" 
d="M-39 0q-16 0 -24.5 19.5t-8.5 31.5q0 10 28.5 25t65.5 30.5t75.5 46.5t54.5 68l335 774q37 80 37 119q-2 26 -29.5 57.5t-54 55.5t-26.5 33q0 7 2 14t13 15.5t30 8.5q100 0 176 17.5t117.5 35t56.5 17.5t23.5 -8t17.5 -29l506 -1122q17 -38 53 -67.5t69 -42.5t58 -25.5
t25 -22.5q0 -11 -9 -31t-24 -20h-760q-16 0 -24.5 19.5t-8.5 31.5q0 10 20 18.5t48 15t55.5 13t44 15.5t12.5 20l-81 213q-11 25 -41 25h-410q-19 0 -25 -13l-10 -26q-8 -23 2 -43l76 -162q11 -22 54.5 -33.5t80.5 -19.5t37 -23q0 -12 -8 -31.5t-23 -19.5h-606zM383 1679
q-3 11 4.5 19t22.5 8h94q21 0 31 -29q41 -106 145 -106q105 0 145 106q11 29 33 29h90q15 0 22.5 -8t4.5 -19q-29 -128 -100 -188.5t-195 -60.5q-125 0 -196.5 60.5t-100.5 188.5zM420 539q-5 -15 1.5 -22t16.5 -7h303q30 0 19 29l-142 360q-8 22 -22 22.5t-23 -22.5z" />
    <glyph glyph-name="abreve" unicode="&#x103;" horiz-adv-x="1241" 
d="M332 -31q-128 0 -204.5 73t-76.5 198q0 50 10.5 83t39 53.5t49 29t70.5 22.5q9 3 13 4l412 121q25 6 36 18.5t11 38.5v156q0 70 -43 111t-117 41q-75 0 -75 -46q0 -12 21.5 -49t21.5 -80q0 -89 -72 -148.5t-170 -59.5q-135 0 -135 129q0 140 152.5 236.5t377.5 96.5
q78 0 141 -13t105 -33.5t73 -51.5t47.5 -60.5t26.5 -67t12.5 -65t2.5 -59.5v-325q0 -70 57 -70q26 0 65.5 13.5t49.5 13.5q16 0 16 -25q0 -68 -58 -132.5t-149.5 -104.5t-183.5 -40q-42 0 -66 8t-32 17.5t-17 28.5l-30 82q-5 20 -17 20q-10 0 -30.5 -17t-50 -41t-67.5 -48
t-95 -41t-121 -17zM301 1335q-3 11 4.5 19t22.5 8h94q21 0 31 -29q41 -106 145 -106q105 0 145 106q11 29 33 29h90q15 0 22.5 -8t4.5 -19q-29 -128 -100 -189t-195 -61q-125 0 -196.5 60.5t-100.5 189.5zM438 313q0 -74 30.5 -118.5t98.5 -44.5q32 0 65 16t48 31
q12 12 12 36v203q0 12 -11.5 19.5t-31.5 1.5l-141 -45q-40 -10 -55 -28t-15 -71z" />
    <glyph glyph-name="Aogonek" unicode="&#x104;" horiz-adv-x="1488" 
d="M-39 0q-16 0 -24.5 19.5t-8.5 31.5q0 10 28.5 25t65.5 30.5t75.5 46.5t54.5 68l335 774q37 80 37 119q-2 26 -29.5 57.5t-54 55.5t-26.5 33q0 7 2 14t13 15.5t30 8.5q100 0 176 17.5t117.5 35t56.5 17.5t23.5 -8t17.5 -29l506 -1122q17 -38 53 -67.5t69 -42.5t58 -25.5
t25 -22.5q0 -11 -9 -31t-24 -20h-113q-153 -109 -153 -225q0 -43 23 -60.5t69 -17.5q60 0 107.5 11t54.5 11q26 0 26 -28q0 -51 -88 -96.5t-188 -45.5q-93 0 -165.5 47t-72.5 134q0 90 68.5 160.5t177.5 109.5h-506q-16 0 -24.5 19.5t-8.5 31.5q0 10 20 18.5t48 15t55.5 13
t44 15.5t12.5 20l-81 213q-11 25 -41 25h-410q-19 0 -25 -13l-10 -26q-8 -23 2 -43l76 -162q11 -22 54.5 -33.5t80.5 -19.5t37 -23q0 -12 -8 -31.5t-23 -19.5h-606zM420 539q-5 -15 1.5 -22t16.5 -7h303q30 0 19 29l-142 360q-8 22 -22 22.5t-23 -22.5z" />
    <glyph glyph-name="aogonek" unicode="&#x105;" horiz-adv-x="1241" 
d="M332 -31q-128 0 -204.5 73t-76.5 198q0 50 10.5 83t39 53.5t49 29t70.5 22.5q9 3 13 4l412 121q25 6 36 18.5t11 38.5v156q0 70 -43 111t-117 41q-75 0 -75 -46q0 -12 21.5 -49t21.5 -80q0 -89 -72 -148.5t-170 -59.5q-135 0 -135 129q0 140 152.5 236.5t377.5 96.5
q78 0 141 -13t105 -33.5t73 -51.5t47.5 -60.5t26.5 -67t12.5 -65t2.5 -59.5v-325q0 -70 57 -70q26 0 65.5 13.5t49.5 13.5q16 0 16 -25q0 -82 -81.5 -156t-196.5 -104q-135 -105 -135 -213q0 -43 23 -60.5t69 -17.5q60 0 107.5 11.5t54.5 11.5q26 0 26 -29q0 -51 -88 -96
t-188 -45q-59 0 -111.5 18t-89.5 60.5t-37 101.5q0 78 52.5 142t140.5 106q-15 4 -26 12t-15 14.5t-11 20.5l-30 82q-5 20 -17 20q-10 0 -30.5 -17t-50 -41t-67.5 -48t-95 -41t-121 -17zM438 313q0 -74 30.5 -118.5t98.5 -44.5q32 0 65 16t48 31q12 12 12 36v203
q0 12 -11.5 19.5t-31.5 1.5l-141 -45q-40 -10 -55 -28t-15 -71z" />
    <glyph glyph-name="Cacute" unicode="&#x106;" horiz-adv-x="1343" 
d="M745 1346q145 0 285.5 -43.5t200.5 -90.5q26 -20 27 -38.5t-13 -38.5l-213 -353q-7 -15 -29.5 -14t-31.5 20l-168 369q-21 45 -56.5 71.5t-78.5 26.5q-30 0 -58.5 -11.5t-57.5 -40.5t-50.5 -73t-35 -114.5t-13.5 -159.5q0 -137 31 -251t92 -200t159.5 -134t225.5 -48
q49 0 89 8.5t71.5 25t49.5 29.5t41 33q39 31 52 34q5 1 10 1q31 0 31 -30q0 -41 -22 -88t-68.5 -95t-110 -86.5t-154.5 -63t-194 -24.5q-104 0 -205.5 23t-196.5 74.5t-166.5 125.5t-115 184.5t-43.5 243.5q0 146 51.5 278.5t142.5 232t227 158.5t295 59zM449 1446
q-11 32 20 45l348 160q75 35 105 35q43 0 69.5 -33.5t28.5 -75.5q2 -27 -15.5 -55.5t-66.5 -36.5l-432 -84q-37 -9 -47 20z" />
    <glyph glyph-name="cacute" unicode="&#x107;" horiz-adv-x="1146" 
d="M584 -31q-108 0 -205 28.5t-176.5 84t-126.5 149t-47 213.5q0 110 40.5 210t113 176.5t181 121.5t236.5 45q188 0 316 -86t128 -211q0 -69 -41.5 -106t-115.5 -37q-54 0 -93 20t-60.5 52.5t-37 71t-28.5 77.5t-29 71.5t-45 52.5t-70 20q-141 0 -141 -222q0 -236 90 -341
t258 -105q63 0 115 12.5t89 35.5t59 43t44 46q23 29 52 29q28 0 28 -45q0 -36 -16.5 -84.5t-57.5 -105.5t-99.5 -104.5t-153 -79.5t-207.5 -32zM365 1094q-13 13 12 49l174 227q64 86 133 86q48 0 76 -33t28 -75q0 -40 -21.5 -69.5t-70.5 -59.5l-264 -158q-11 -7 -19.5 -7
t-13 3t-14.5 12z" />
    <glyph glyph-name="Cdotaccent" unicode="&#x10a;" horiz-adv-x="1343" 
d="M745 1346q145 0 285.5 -43.5t200.5 -90.5q26 -20 27 -38.5t-13 -38.5l-213 -353q-7 -15 -29.5 -14t-31.5 20l-168 369q-21 45 -56.5 71.5t-78.5 26.5q-30 0 -58.5 -11.5t-57.5 -40.5t-50.5 -73t-35 -114.5t-13.5 -159.5q0 -137 31 -251t92 -200t159.5 -134t225.5 -48
q49 0 89 8.5t71.5 25t49.5 29.5t41 33q39 31 52 34q5 1 10 1q31 0 31 -30q0 -41 -22 -88t-68.5 -95t-110 -86.5t-154.5 -63t-194 -24.5q-104 0 -205.5 23t-196.5 74.5t-166.5 125.5t-115 184.5t-43.5 243.5q0 146 51.5 278.5t142.5 232t227 158.5t295 59zM571 1567
q0 63 46 105t114 42t115 -42t47 -105q0 -57 -48 -100.5t-114 -43.5t-113 43.5t-47 100.5z" />
    <glyph glyph-name="cdotaccent" unicode="&#x10b;" horiz-adv-x="1146" 
d="M584 -31q-108 0 -205 28.5t-176.5 84t-126.5 149t-47 213.5q0 110 40.5 210t113 176.5t181 121.5t236.5 45q188 0 316 -86t128 -211q0 -69 -41.5 -106t-115.5 -37q-54 0 -93 20t-60.5 52.5t-37 71t-28.5 77.5t-29 71.5t-45 52.5t-70 20q-141 0 -141 -222q0 -236 90 -341
t258 -105q63 0 115 12.5t89 35.5t59 43t44 46q23 29 52 29q28 0 28 -45q0 -36 -16.5 -84.5t-57.5 -105.5t-99.5 -104.5t-153 -79.5t-207.5 -32zM414 1223q0 63 45.5 105t113.5 42t115 -42t47 -105q0 -57 -48 -100.5t-114 -43.5t-112.5 43.5t-46.5 100.5z" />
    <glyph glyph-name="Ccaron" unicode="&#x10c;" horiz-adv-x="1343" 
d="M745 1346q145 0 285.5 -43.5t200.5 -90.5q26 -20 27 -38.5t-13 -38.5l-213 -353q-7 -15 -29.5 -14t-31.5 20l-168 369q-21 45 -56.5 71.5t-78.5 26.5q-30 0 -58.5 -11.5t-57.5 -40.5t-50.5 -73t-35 -114.5t-13.5 -159.5q0 -137 31 -251t92 -200t159.5 -134t225.5 -48
q49 0 89 8.5t71.5 25t49.5 29.5t41 33q39 31 52 34q5 1 10 1q31 0 31 -30q0 -41 -22 -88t-68.5 -95t-110 -86.5t-154.5 -63t-194 -24.5q-104 0 -205.5 23t-196.5 74.5t-166.5 125.5t-115 184.5t-43.5 243.5q0 146 51.5 278.5t142.5 232t227 158.5t295 59zM436 1671
q-9 11 -6 24t14 13h119q41 0 60 -22l92 -82q23 -26 43 0l86 82q22 22 59 22h115q12 0 16 -13t-6 -24l-178 -203q-24 -24 -49 -24h-135q-29 0 -50 24z" />
    <glyph glyph-name="ccaron" unicode="&#x10d;" horiz-adv-x="1146" 
d="M584 -31q-108 0 -205 28.5t-176.5 84t-126.5 149t-47 213.5q0 110 40.5 210t113 176.5t181 121.5t236.5 45q188 0 316 -86t128 -211q0 -69 -41.5 -106t-115.5 -37q-54 0 -93 20t-60.5 52.5t-37 71t-28.5 77.5t-29 71.5t-45 52.5t-70 20q-141 0 -141 -222q0 -236 90 -341
t258 -105q63 0 115 12.5t89 35.5t59 43t44 46q23 29 52 29q28 0 28 -45q0 -36 -16.5 -84.5t-57.5 -105.5t-99.5 -104.5t-153 -79.5t-207.5 -32zM279 1327q-9 11 -6 24t14 13h119q39 0 59 -23l92 -81q23 -26 43 0l86 81q23 23 59 23h115q12 0 16 -13t-6 -24l-178 -203
q-24 -24 -49 -24h-135q-28 0 -49 24z" />
    <glyph glyph-name="Dcaron" unicode="&#x10e;" horiz-adv-x="1466" 
d="M74 0q-16 0 -24.5 19.5t-8.5 31.5t24.5 23.5t53.5 20t53.5 24.5t24.5 35v1007q0 19 -24.5 35t-53.5 24.5t-53.5 20t-24.5 23.5t8.5 31.5t24.5 19.5h723q94 0 183.5 -22.5t173 -72.5t145.5 -122t99.5 -179t37.5 -235q0 -148 -43 -272t-125 -216.5t-210.5 -144
t-291.5 -51.5h-692zM440 1671q-9 11 -5.5 24t14.5 13h118q41 0 60 -22l92 -82q23 -26 43 0l86 82q22 22 59 22h115q12 0 16 -13t-6 -24l-178 -203q-24 -24 -49 -24h-135q-28 0 -49 24zM598 238q0 -25 2.5 -40.5t13.5 -36.5t38.5 -31.5t70.5 -10.5q130 0 201 109.5t71 332.5
q0 126 -23.5 237t-61 188t-84 133.5t-94.5 83t-91 26.5q-28 0 -35.5 -7.5t-7.5 -27.5v-956z" />
    <glyph glyph-name="dcaron" unicode="&#x10f;" horiz-adv-x="1556" 
d="M430 -23q-179 0 -283 116t-104 308q0 83 19.5 165t62.5 160.5t105 138t154.5 96t203.5 36.5q21 0 41 -1.5t31.5 -3t30.5 -5t30 -4.5q13 -2 20 2.5t8 9.5t1 15v170q0 19 -22 32t-49 18.5t-49 17t-22 28.5q0 34 31 39q98 13 150.5 22.5t122.5 35t128 67.5q35 26 56 26
q22 0 22 -30v-1297q0 -19 22 -33.5t49 -22.5t49 -18.5t22 -21.5t-9 -27t-24 -16h-385q-15 0 -24.5 2.5t-19 14t-12.5 32.5l-18 148q-4 34 -14 34q-9 0 -18.5 -19t-19.5 -47t-32 -61t-51.5 -61t-82 -47t-120.5 -19zM434 453q0 -133 41.5 -185.5t110.5 -52.5q164 0 164 320
v303q0 34 -23.5 58t-69.5 24q-59 0 -105 -49.5t-70 -125t-36 -150.5t-12 -142zM1257 952q0 11 25 24t55 25t55 35.5t25 53.5q0 25 -26 40q-1 1 -22.5 12t-29 17t-22.5 20t-21 32.5t-6 41.5q0 61 36.5 99.5t119.5 38.5q91 0 131.5 -56t40.5 -135q0 -80 -47.5 -149
t-116 -106.5t-137.5 -39.5q-28 0 -44 15t-16 32z" />
    <glyph glyph-name="Dcroat" unicode="&#x110;" horiz-adv-x="1466" 
d="M117 594q-12 0 -20.5 8.5t-8.5 20.5v69q0 13 8.5 22t20.5 9h80v438q0 19 -24.5 35t-53.5 24.5t-53.5 20t-24.5 23.5t8.5 31.5t24.5 19.5h723q94 0 183.5 -22.5t173 -72.5t145.5 -122t99.5 -179t37.5 -235q0 -148 -43 -272t-125 -216.5t-210.5 -144t-291.5 -51.5h-692
q-16 0 -24.5 19.5t-8.5 31.5t24.5 23.5t53.5 20t53.5 24.5t24.5 35v440h-80zM598 238q0 -25 2.5 -40.5t13.5 -36.5t38.5 -31.5t70.5 -10.5q130 0 201 109.5t71 332.5q0 126 -23.5 237t-61 188t-84 133.5t-94.5 83t-91 26.5q-28 0 -35.5 -7.5t-7.5 -27.5v-471h172
q12 0 21.5 -9t9.5 -22v-69q0 -12 -9.5 -20.5t-21.5 -8.5h-172v-356z" />
    <glyph glyph-name="dcroat" unicode="&#x111;" horiz-adv-x="1280" 
d="M551 1188q-12 0 -21.5 9t-9.5 22v69q0 12 9.5 20.5t21.5 8.5h104q93 13 142.5 22t118 34.5t124.5 66.5q35 26 56 26q22 0 22 -30v-119h115q12 0 21.5 -8.5t9.5 -20.5v-69q0 -13 -9.5 -22t-21.5 -9h-115v-1049q0 -19 22 -33.5t49 -22.5t49 -18.5t22 -21.5t-9 -27t-24 -16
h-385q-15 0 -24.5 2.5t-19 14t-12.5 32.5l-18 148q-4 34 -14 34q-9 0 -18.5 -19t-19.5 -47t-32 -61t-51.5 -61t-82 -47t-120.5 -19q-179 0 -283 116t-104 308q0 83 19.5 165t62.5 160.5t105 138t154.5 96t203.5 36.5q21 0 41 -1.5t31.5 -3t30.5 -5t30 -4.5q13 -2 20 2.5
t8 9.5t1 15v170q0 6 -2 8h-197zM434 453q0 -133 41.5 -185.5t110.5 -52.5q164 0 164 320v303q0 34 -23.5 58t-69.5 24q-59 0 -105 -49.5t-70 -125t-36 -150.5t-12 -142z" />
    <glyph glyph-name="Emacron" unicode="&#x112;" horiz-adv-x="1306" 
d="M74 0q-16 0 -24.5 19.5t-8.5 31.5t24.5 23.5t53.5 20t53.5 24.5t24.5 35v1007q0 19 -24.5 35t-53.5 24.5t-53.5 20t-24.5 23.5t8.5 31.5t24.5 19.5h1038q19 0 33 -12.5t14 -32.5l21 -439q1 -18 -9 -25.5t-25 -1.5t-28 25l-250 338q-15 23 -49 23h-190q-13 0 -22 -9
t-9 -22v-393q0 -13 8.5 -21t22.5 -8h82q16 0 28 15l158 184q13 16 29 10t16 -24v-525q0 -19 -16.5 -25t-28.5 11l-158 215q-11 14 -28 14h-82q-14 0 -22.5 -8.5t-8.5 -21.5v-400q0 -21 10.5 -34t30.5 -13h186q46 0 86 53l240 330q23 32 46 32t20 -40l-39 -457
q-3 -53 -60 -53h-1044zM377 1524l10 84q1 13 11.5 21.5t23.5 8.5h463q39 0 33 -36l-13 -84q-5 -33 -35 -33h-460q-39 0 -33 39z" />
    <glyph glyph-name="emacron" unicode="&#x113;" horiz-adv-x="1153" 
d="M600 -31q-85 0 -165 17.5t-154.5 56.5t-130 95.5t-88.5 141t-33 185.5q0 110 40.5 207.5t112.5 169t176.5 113.5t227.5 42q201 0 334 -100.5t133 -243.5q0 -28 -5.5 -46.5t-16.5 -26t-20 -9.5t-22 -2h-547q-11 0 -17 -2t-11.5 -13t-5.5 -32q0 -50 19.5 -98.5t56.5 -91
t100 -68.5t141 -26q187 0 295 120q4 5 15.5 18.5t16 18t13 12.5t14.5 10.5t13 2.5q26 0 26 -45q0 -37 -16 -85t-55 -105.5t-95.5 -104.5t-148.5 -79t-203 -32zM289 1180l10 84q1 13 11.5 21.5t23.5 8.5h463q38 0 32 -37l-12 -83q-5 -33 -35 -33h-460q-39 0 -33 39zM397 717
q0 -24 7.5 -37t14 -14.5t17.5 -1.5h189q12 0 18.5 1t16 7t14 21.5t4.5 41.5q0 76 -40 132.5t-101 56.5q-36 0 -65 -24t-44.5 -59.5t-23 -67.5t-7.5 -56z" />
    <glyph glyph-name="Ebreve" unicode="&#x114;" horiz-adv-x="1306" 
d="M74 0q-16 0 -24.5 19.5t-8.5 31.5t24.5 23.5t53.5 20t53.5 24.5t24.5 35v1007q0 19 -24.5 35t-53.5 24.5t-53.5 20t-24.5 23.5t8.5 31.5t24.5 19.5h1038q19 0 33 -12.5t14 -32.5l21 -439q1 -18 -9 -25.5t-25 -1.5t-28 25l-250 338q-15 23 -49 23h-190q-13 0 -22 -9
t-9 -22v-393q0 -13 8.5 -21t22.5 -8h82q16 0 28 15l158 184q13 16 29 10t16 -24v-525q0 -19 -16.5 -25t-28.5 11l-158 215q-11 14 -28 14h-82q-14 0 -22.5 -8.5t-8.5 -21.5v-400q0 -21 10.5 -34t30.5 -13h186q46 0 86 53l240 330q23 32 46 32t20 -40l-39 -457
q-3 -53 -60 -53h-1044zM350 1679q-3 11 4.5 19t22.5 8h94q21 0 31 -29q41 -106 145 -106q53 0 90.5 29t55.5 77q11 29 32 29h90q15 0 22.5 -8t4.5 -19q-29 -128 -100 -188.5t-195 -60.5q-125 0 -196.5 60.5t-100.5 188.5z" />
    <glyph glyph-name="ebreve" unicode="&#x115;" horiz-adv-x="1153" 
d="M600 -31q-85 0 -165 17.5t-154.5 56.5t-130 95.5t-88.5 141t-33 185.5q0 110 40.5 207.5t112.5 169t176.5 113.5t227.5 42q201 0 334 -100.5t133 -243.5q0 -28 -5.5 -46.5t-16.5 -26t-20 -9.5t-22 -2h-547q-11 0 -17 -2t-11.5 -13t-5.5 -32q0 -50 19.5 -98.5t56.5 -91
t100 -68.5t141 -26q187 0 295 120q4 5 15.5 18.5t16 18t13 12.5t14.5 10.5t13 2.5q26 0 26 -45q0 -37 -16 -85t-55 -105.5t-95.5 -104.5t-148.5 -79t-203 -32zM262 1335q-3 11 4.5 19t22.5 8h94q21 0 31 -29q41 -106 145 -106q53 0 90.5 29t55.5 77q11 29 32 29h90
q15 0 22.5 -8t4.5 -19q-29 -128 -100 -189t-195 -61q-125 0 -196.5 60.5t-100.5 189.5zM397 717q0 -24 7.5 -37t14 -14.5t17.5 -1.5h189q12 0 18.5 1t16 7t14 21.5t4.5 41.5q0 76 -40 132.5t-101 56.5q-36 0 -65 -24t-44.5 -59.5t-23 -67.5t-7.5 -56z" />
    <glyph glyph-name="Edotaccent" unicode="&#x116;" horiz-adv-x="1306" 
d="M74 0q-16 0 -24.5 19.5t-8.5 31.5t24.5 23.5t53.5 20t53.5 24.5t24.5 35v1007q0 19 -24.5 35t-53.5 24.5t-53.5 20t-24.5 23.5t8.5 31.5t24.5 19.5h1038q19 0 33 -12.5t14 -32.5l21 -439q1 -18 -9 -25.5t-25 -1.5t-28 25l-250 338q-15 23 -49 23h-190q-13 0 -22 -9
t-9 -22v-393q0 -13 8.5 -21t22.5 -8h82q16 0 28 15l158 184q13 16 29 10t16 -24v-525q0 -19 -16.5 -25t-28.5 11l-158 215q-11 14 -28 14h-82q-14 0 -22.5 -8.5t-8.5 -21.5v-400q0 -21 10.5 -34t30.5 -13h186q46 0 86 53l240 330q23 32 46 32t20 -40l-39 -457
q-3 -53 -60 -53h-1044zM487 1567q0 63 46 105t114 42t115 -42t47 -105q0 -57 -48 -100.5t-114 -43.5t-113 43.5t-47 100.5z" />
    <glyph glyph-name="edotaccent" unicode="&#x117;" horiz-adv-x="1153" 
d="M600 -31q-85 0 -165 17.5t-154.5 56.5t-130 95.5t-88.5 141t-33 185.5q0 110 40.5 207.5t112.5 169t176.5 113.5t227.5 42q201 0 334 -100.5t133 -243.5q0 -28 -5.5 -46.5t-16.5 -26t-20 -9.5t-22 -2h-547q-11 0 -17 -2t-11.5 -13t-5.5 -32q0 -50 19.5 -98.5t56.5 -91
t100 -68.5t141 -26q187 0 295 120q4 5 15.5 18.5t16 18t13 12.5t14.5 10.5t13 2.5q26 0 26 -45q0 -37 -16 -85t-55 -105.5t-95.5 -104.5t-148.5 -79t-203 -32zM397 717q0 -24 7.5 -37t14 -14.5t17.5 -1.5h189q12 0 18.5 1t16 7t14 21.5t4.5 41.5q0 76 -40 132.5t-101 56.5
q-36 0 -65 -24t-44.5 -59.5t-23 -67.5t-7.5 -56zM399 1223q0 63 46 105t114 42t115 -42t47 -105q0 -57 -48 -100.5t-114 -43.5t-113 43.5t-47 100.5z" />
    <glyph glyph-name="Eogonek" unicode="&#x118;" horiz-adv-x="1306" 
d="M74 0q-16 0 -24.5 19.5t-8.5 31.5t24.5 23.5t53.5 20t53.5 24.5t24.5 35v1007q0 19 -24.5 35t-53.5 24.5t-53.5 20t-24.5 23.5t8.5 31.5t24.5 19.5h1038q19 0 33 -12.5t14 -32.5l21 -439q1 -18 -9 -25.5t-25 -1.5t-28 25l-250 338q-15 23 -49 23h-190q-13 0 -22 -9
t-9 -22v-393q0 -13 8.5 -21t22.5 -8h82q16 0 28 15l158 184q13 16 29 10t16 -24v-525q0 -19 -16.5 -25t-28.5 11l-158 215q-11 14 -28 14h-82q-14 0 -22.5 -8.5t-8.5 -21.5v-400q0 -21 10.5 -34t30.5 -13h186q46 0 86 53l240 330q23 32 46 32t20 -40l-39 -457
q-3 -53 -60 -53h-80q-153 -109 -153 -225q0 -43 23 -60.5t69 -17.5q60 0 107.5 11t54.5 11q26 0 26 -28q0 -51 -88 -96.5t-188 -45.5q-93 0 -165.5 47t-72.5 134q0 90 68.5 160.5t177.5 109.5h-823z" />
    <glyph glyph-name="eogonek" unicode="&#x119;" horiz-adv-x="1153" 
d="M625 664q12 0 18.5 1t16 7t14 21.5t4.5 41.5q0 76 -40 132.5t-101 56.5q-36 0 -65 -24t-44.5 -59.5t-23 -67.5t-7.5 -56t7.5 -37t14 -14.5t17.5 -1.5h189zM29 465q0 110 40.5 207.5t112.5 169t176.5 113.5t227.5 42q201 0 334 -100.5t133 -243.5q0 -28 -5.5 -46.5
t-16.5 -26t-20 -9.5t-22 -2h-547q-11 0 -17 -2t-11.5 -13t-5.5 -32q0 -50 19.5 -98.5t56.5 -91t100 -68.5t141 -26q187 0 295 120q4 5 15.5 18.5t16 18t13 12.5t14.5 10.5t13 2.5q26 0 26 -45q0 -31 -11.5 -71t-39.5 -88.5t-68 -92.5t-104.5 -81.5t-142.5 -55.5
q-136 -103 -136 -211q0 -43 23.5 -60.5t69.5 -17.5q60 0 107 11t54 11q27 0 27 -28q0 -51 -88 -96.5t-188 -45.5q-93 0 -165.5 47t-72.5 134q0 74 48 135.5t130 103.5q-103 5 -195 37t-169 90t-122.5 153.5t-45.5 215.5z" />
    <glyph glyph-name="Ecaron" unicode="&#x11a;" horiz-adv-x="1306" 
d="M74 0q-16 0 -24.5 19.5t-8.5 31.5t24.5 23.5t53.5 20t53.5 24.5t24.5 35v1007q0 19 -24.5 35t-53.5 24.5t-53.5 20t-24.5 23.5t8.5 31.5t24.5 19.5h1038q19 0 33 -12.5t14 -32.5l21 -439q1 -18 -9 -25.5t-25 -1.5t-28 25l-250 338q-15 23 -49 23h-190q-13 0 -22 -9
t-9 -22v-393q0 -13 8.5 -21t22.5 -8h82q16 0 28 15l158 184q13 16 29 10t16 -24v-525q0 -19 -16.5 -25t-28.5 11l-158 215q-11 14 -28 14h-82q-14 0 -22.5 -8.5t-8.5 -21.5v-400q0 -21 10.5 -34t30.5 -13h186q46 0 86 53l240 330q23 32 46 32t20 -40l-39 -457
q-3 -53 -60 -53h-1044zM350 1671q-9 11 -6 24t14 13h119q41 0 60 -22l92 -82q23 -26 43 0l86 82q22 22 59 22h115q12 0 16 -13t-6 -24l-178 -203q-24 -24 -49 -24h-135q-29 0 -50 24z" />
    <glyph glyph-name="ecaron" unicode="&#x11b;" horiz-adv-x="1153" 
d="M600 -31q-85 0 -165 17.5t-154.5 56.5t-130 95.5t-88.5 141t-33 185.5q0 110 40.5 207.5t112.5 169t176.5 113.5t227.5 42q201 0 334 -100.5t133 -243.5q0 -28 -5.5 -46.5t-16.5 -26t-20 -9.5t-22 -2h-547q-11 0 -17 -2t-11.5 -13t-5.5 -32q0 -50 19.5 -98.5t56.5 -91
t100 -68.5t141 -26q187 0 295 120q4 5 15.5 18.5t16 18t13 12.5t14.5 10.5t13 2.5q26 0 26 -45q0 -37 -16 -85t-55 -105.5t-95.5 -104.5t-148.5 -79t-203 -32zM262 1327q-9 11 -6 24t14 13h119q40 0 60 -23l92 -81q23 -26 43 0l86 81q23 23 59 23h115q12 0 16 -13t-6 -24
l-178 -203q-24 -24 -49 -24h-135q-29 0 -50 24zM397 717q0 -24 7.5 -37t14 -14.5t17.5 -1.5h189q12 0 18.5 1t16 7t14 21.5t4.5 41.5q0 76 -40 132.5t-101 56.5q-36 0 -65 -24t-44.5 -59.5t-23 -67.5t-7.5 -56z" />
    <glyph glyph-name="Gbreve" unicode="&#x11e;" horiz-adv-x="1468" 
d="M752 -33q-104 0 -204.5 24t-195 77.5t-166 129.5t-114.5 189.5t-43 249.5q0 149 51.5 278.5t144.5 225t232 150.5t305 55q151 0 309.5 -36.5t224.5 -90.5q27 -21 28 -38t-13 -38l-152 -320q-9 -19 -30.5 -21.5t-36.5 17.5l-279 371q-50 76 -133 76q-96 0 -165 -107.5
t-69 -312.5q0 -116 23 -228t63.5 -202.5t93 -160.5t114.5 -108t124 -38q64 0 104 37t40 79v150q0 20 -15 35l-190 192q-16 15 -7 38.5t33 23.5h592q15 0 24 -17t9 -29q0 -15 -31 -28.5t-61.5 -31.5t-30.5 -42v-434q0 -14 -9 -22.5t-22 -8.5q-18 0 -47 29t-51 29
q-20 0 -48.5 -14.5t-64.5 -35.5t-81 -42t-112.5 -35.5t-143.5 -14.5zM444 1679q-3 11 4.5 19t22.5 8h94q21 0 31 -29q41 -106 145 -106q53 0 90.5 29t55.5 77q11 29 33 29h90q15 0 22 -8t4 -19q-29 -128 -100 -188.5t-195 -60.5q-125 0 -196.5 60.5t-100.5 188.5z" />
    <glyph glyph-name="gbreve" unicode="&#x11f;" horiz-adv-x="1189" 
d="M426 -446q-162 0 -278.5 69t-116.5 144q0 24 9.5 40.5t18.5 22.5t33 20l154 87q10 4 8.5 13.5t-14.5 12.5l-31 4q-66 10 -111 37.5t-45 69.5q0 57 94 119l144 102q31 22 0 37q-43 21 -76.5 43t-71.5 58.5t-59 88.5t-21 115q0 165 134 262.5t340 97.5q121 0 225 -26
q18 -2 24.5 1.5t6.5 16.5q0 18 -4.5 62t-4.5 65q0 88 55.5 128t149.5 40q102 0 170 -45.5t68 -126.5q0 -23 -6 -43.5t-20.5 -42t-44.5 -34.5t-73 -13q-39 0 -88 29.5t-86 29.5q-32 0 -46.5 -13.5t-12 -32t12 -36.5t22.5 -28q5 -4 25.5 -20.5t28.5 -23.5t26.5 -25t27 -30.5
t21.5 -33.5t19 -40.5t11 -46t5 -55.5q0 -164 -138 -264t-372 -100q-51 0 -101 6q-31 3 -43 -12l-37 -39q-14 -17 -1.5 -31t42.5 -16l490 -4q55 1 97 -4.5t84 -21.5t64.5 -50.5t22.5 -87.5q0 -92 -67.5 -181t-172.5 -152.5t-236 -102.5t-255 -39zM236 1335q-3 11 4 19t22 8
h94q21 0 31 -29q41 -106 145 -106q53 0 90.5 29t55.5 77q11 29 33 29h90q15 0 22 -8t4 -19q-29 -128 -100 -189t-195 -61q-125 0 -195.5 60.5t-100.5 189.5zM291 -164q0 -55 86 -84t201 -31q149 -2 234 24.5t85 80.5q0 65 -106 72l-373 41q-42 3 -66 -21l-39 -37
q-22 -22 -22 -45zM424 766q0 -97 21 -190t61.5 -156.5t91.5 -63.5q49 0 70.5 40.5t21.5 127.5q0 62 -11 131t-31 134t-55 107t-77 42q-47 0 -69.5 -39.5t-22.5 -132.5z" />
    <glyph glyph-name="Gdotaccent" unicode="&#x120;" horiz-adv-x="1468" 
d="M752 -33q-104 0 -204.5 24t-195 77.5t-166 129.5t-114.5 189.5t-43 249.5q0 149 51.5 278.5t144.5 225t232 150.5t305 55q151 0 309.5 -36.5t224.5 -90.5q27 -21 28 -38t-13 -38l-152 -320q-9 -19 -30.5 -21.5t-36.5 17.5l-279 371q-50 76 -133 76q-96 0 -165 -107.5
t-69 -312.5q0 -116 23 -228t63.5 -202.5t93 -160.5t114.5 -108t124 -38q64 0 104 37t40 79v150q0 20 -15 35l-190 192q-16 15 -7 38.5t33 23.5h592q15 0 24 -17t9 -29q0 -15 -31 -28.5t-61.5 -31.5t-30.5 -42v-434q0 -14 -9 -22.5t-22 -8.5q-18 0 -47 29t-51 29
q-20 0 -48.5 -14.5t-64.5 -35.5t-81 -42t-112.5 -35.5t-143.5 -14.5zM582 1567q0 63 45.5 105t113.5 42t115 -42t47 -105q0 -57 -48 -100.5t-114 -43.5t-112.5 43.5t-46.5 100.5z" />
    <glyph glyph-name="gdotaccent" unicode="&#x121;" horiz-adv-x="1189" 
d="M426 -446q-162 0 -278.5 69t-116.5 144q0 24 9.5 40.5t18.5 22.5t33 20l154 87q10 4 8.5 13.5t-14.5 12.5l-31 4q-66 10 -111 37.5t-45 69.5q0 57 94 119l144 102q31 22 0 37q-43 21 -76.5 43t-71.5 58.5t-59 88.5t-21 115q0 165 134 262.5t340 97.5q121 0 225 -26
q18 -2 24.5 1.5t6.5 16.5q0 18 -4.5 62t-4.5 65q0 88 55.5 128t149.5 40q102 0 170 -45.5t68 -126.5q0 -23 -6 -43.5t-20.5 -42t-44.5 -34.5t-73 -13q-39 0 -88 29.5t-86 29.5q-32 0 -46.5 -13.5t-12 -32t12 -36.5t22.5 -28q5 -4 25.5 -20.5t28.5 -23.5t26.5 -25t27 -30.5
t21.5 -33.5t19 -40.5t11 -46t5 -55.5q0 -164 -138 -264t-372 -100q-51 0 -101 6q-31 3 -43 -12l-37 -39q-14 -17 -1.5 -31t42.5 -16l490 -4q55 1 97 -4.5t84 -21.5t64.5 -50.5t22.5 -87.5q0 -92 -67.5 -181t-172.5 -152.5t-236 -102.5t-255 -39zM291 -164q0 -55 86 -84
t201 -31q149 -2 234 24.5t85 80.5q0 65 -106 72l-373 41q-42 3 -66 -21l-39 -37q-22 -22 -22 -45zM373 1223q0 63 45.5 105t113.5 42t115 -42t47 -105q0 -57 -48 -100.5t-114 -43.5t-112.5 43.5t-46.5 100.5zM424 766q0 -97 21 -190t61.5 -156.5t91.5 -63.5q49 0 70.5 40.5
t21.5 127.5q0 62 -11 131t-31 134t-55 107t-77 42q-47 0 -69.5 -39.5t-22.5 -132.5z" />
    <glyph glyph-name="uni0122" unicode="&#x122;" horiz-adv-x="1468" 
d="M752 -33q-104 0 -204.5 24t-195 77.5t-166 129.5t-114.5 189.5t-43 249.5q0 149 51.5 278.5t144.5 225t232 150.5t305 55q151 0 309.5 -36.5t224.5 -90.5q27 -21 28 -38t-13 -38l-152 -320q-9 -19 -30.5 -21.5t-36.5 17.5l-279 371q-50 76 -133 76q-96 0 -165 -107.5
t-69 -312.5q0 -116 23 -228t63.5 -202.5t93 -160.5t114.5 -108t124 -38q64 0 104 37t40 79v150q0 20 -15 35l-190 192q-16 15 -7 38.5t33 23.5h592q15 0 24 -17t9 -29q0 -15 -31 -28.5t-61.5 -31.5t-30.5 -42v-434q0 -14 -9 -22.5t-22 -8.5q-18 0 -47 29t-51 29
q-20 0 -48.5 -14.5t-64.5 -35.5t-81 -42t-112.5 -35.5t-143.5 -14.5zM590 -211q0 69 43 104t108 35q76 0 114 -51.5t38 -122.5q0 -107 -72.5 -178.5t-148.5 -71.5q-39 0 -39 17t21 36t42 42t21 49q0 13 -6.5 20t-12.5 8.5t-22 4.5q-86 11 -86 108z" />
    <glyph glyph-name="uni0123" unicode="&#x123;" horiz-adv-x="1189" 
d="M426 -446q-162 0 -278.5 69t-116.5 144q0 24 9.5 40.5t18.5 22.5t33 20l154 87q10 4 8.5 13.5t-14.5 12.5l-31 4q-66 10 -111 37.5t-45 69.5q0 57 94 119l144 102q31 22 0 37q-43 21 -76.5 43t-71.5 58.5t-59 88.5t-21 115q0 165 134 262.5t340 97.5q121 0 225 -26
q18 -2 24.5 1.5t6.5 16.5q0 18 -4.5 62t-4.5 65q0 88 55.5 128t149.5 40q102 0 170 -45.5t68 -126.5q0 -23 -6 -43.5t-20.5 -42t-44.5 -34.5t-73 -13q-39 0 -88 29.5t-86 29.5q-32 0 -46.5 -13.5t-12 -32t12 -36.5t22.5 -28q5 -4 25.5 -20.5t28.5 -23.5t26.5 -25t27 -30.5
t21.5 -33.5t19 -40.5t11 -46t5 -55.5q0 -164 -138 -264t-372 -100q-51 0 -101 6q-31 3 -43 -12l-37 -39q-14 -17 -1.5 -31t42.5 -16l490 -4q55 1 97 -4.5t84 -21.5t64.5 -50.5t22.5 -87.5q0 -92 -67.5 -181t-172.5 -152.5t-236 -102.5t-255 -39zM291 -164q0 -55 86 -84
t201 -31q149 -2 234 24.5t85 80.5q0 65 -106 72l-373 41q-42 3 -66 -21l-39 -37q-22 -22 -22 -45zM385 1239q0 95 73.5 179.5t149.5 84.5q21 0 21 -18q0 -9 -12 -21t-27 -23.5t-27 -33t-12 -45.5q0 -40 35 -43q94 -11 94 -107q0 -61 -41.5 -95t-103.5 -34q-70 0 -110 43
t-40 113zM424 766q0 -97 21 -190t61.5 -156.5t91.5 -63.5q49 0 70.5 40.5t21.5 127.5q0 62 -11 131t-31 134t-55 107t-77 42q-47 0 -69.5 -39.5t-22.5 -132.5z" />
    <glyph glyph-name="Hbar" unicode="&#x126;" horiz-adv-x="1634" 
d="M918 0q-16 0 -24.5 19.5t-8.5 31.5t23.5 23.5t52 20t52 24.5t23.5 35v276q0 29 -28 29h-379q-14 0 -22.5 -8t-8.5 -21v-276q0 -19 24 -35t52 -24.5t52 -20t24 -23.5t-8.5 -31.5t-24.5 -19.5h-643q-16 0 -24.5 19.5t-8.5 31.5t24.5 23.5t53.5 20t53.5 24.5t24.5 35v1007
q0 19 -24.5 35t-53.5 24.5t-53.5 20t-24.5 23.5t8.5 31.5t24.5 19.5h643q16 0 24.5 -19.5t8.5 -31.5t-24 -23.5t-52 -20t-52 -24.5t-24 -35v-207q0 -28 31 -28h379q28 0 28 28v207q0 19 -23.5 35t-52 24.5t-52 20t-23.5 23.5t8.5 31.5t24.5 19.5h643q16 0 24 -19t8 -32
q0 -12 -24 -23.5t-53.5 -20t-53.5 -24.5t-24 -35v-1007q0 -19 24 -35t53.5 -24.5t53.5 -20t24 -23.5q0 -13 -8 -32t-24 -19h-643zM598 633q0 -13 8.5 -21t22.5 -8h379q28 0 28 29v119q0 30 -28 30h-379q-14 0 -22.5 -8.5t-8.5 -21.5v-119z" />
    <glyph glyph-name="hbar" unicode="&#x127;" horiz-adv-x="1349" 
d="M47 1180q-13 0 -22 8t-9 20v72q0 8 7 18q7 14 26 17q157 22 240 45t160 78q33 26 57 26q22 0 22 -30v-125h201q12 0 20.5 -8.5t8.5 -20.5v-72q0 -12 -8.5 -20t-20.5 -8h-201v-416q0 -12 9 -13.5t18 7.5q5 5 28.5 37t52 62.5t69.5 64t99 54.5t122 21q119 0 193.5 -71.5
t74.5 -220.5v-566q0 -19 21.5 -33.5t48 -22t48 -18.5t21.5 -22q0 -12 -8.5 -27.5t-24.5 -15.5h-559q-15 0 -23.5 15.5t-8.5 27.5q0 11 18 21.5t39 18.5t39 22.5t18 33.5v502q0 69 -28.5 104t-79.5 35q-66 0 -126.5 -55t-60.5 -135v-451q0 -19 18 -33.5t39.5 -22.5
t39.5 -18.5t18 -21.5t-9 -27t-24 -16h-561q-16 0 -24.5 15.5t-8.5 27.5q0 11 22 22t49 18.5t49 22t22 33.5v1037v4h-111z" />
    <glyph glyph-name="Itilde" unicode="&#x128;" horiz-adv-x="800" 
d="M76 0q-16 0 -24.5 19.5t-8.5 31.5t24.5 23.5t54.5 20t54.5 24.5t24.5 35v1007q0 19 -24.5 35t-54.5 24.5t-54.5 20t-24.5 23.5t8.5 31.5t24.5 19.5h647q16 0 24.5 -19.5t8.5 -31.5t-24 -23.5t-53 -20t-53 -24.5t-24 -35v-1007q0 -19 24 -35t53 -24.5t53 -20t24 -23.5
t-8.5 -31.5t-24.5 -19.5h-647zM74 1516q7 93 66.5 146.5t146.5 45.5q37 -3 73 -22.5t60 -41.5t53.5 -40.5t54.5 -20.5q51 -3 54 47q3 31 30 31h86q15 0 24 -10.5t7 -24.5q-7 -94 -68 -148t-145 -46q-45 3 -92 33t-87.5 59.5t-70.5 31.5q-21 2 -35.5 -10.5t-15.5 -36.5
q-3 -30 -29 -30h-86q-13 0 -20.5 11t-5.5 26z" />
    <glyph glyph-name="itilde" unicode="&#x129;" 
d="M49 0q-16 0 -24.5 15.5t-8.5 27.5q0 11 22 22t49 18.5t49 22t22 33.5v594q0 19 -22 34t-49 22.5t-49 18.5t-22 23q0 36 33 41q19 3 81.5 12t78 11.5t59.5 11t64.5 16t52 20t61.5 28.5q37 22 60 22q9 0 15.5 -7t6.5 -21v-826q0 -19 22 -33.5t48 -22t48 -18.5t22 -22
q0 -12 -8.5 -27.5t-24.5 -15.5h-586zM14 1171q7 93 66.5 147t146.5 46q46 -4 90.5 -34t82.5 -59.5t69 -31.5q50 -3 53 47q3 31 31 31h86q15 0 24 -10.5t7 -24.5q-7 -94 -68 -148.5t-145 -46.5q-36 3 -73.5 22t-63.5 41t-57.5 41t-55.5 21q-21 2 -35.5 -10.5t-15.5 -36.5
q-3 -30 -29 -30h-86q-13 0 -21 10.5t-6 25.5z" />
    <glyph glyph-name="Imacron" unicode="&#x12a;" horiz-adv-x="800" 
d="M76 0q-16 0 -24.5 19.5t-8.5 31.5t24.5 23.5t54.5 20t54.5 24.5t24.5 35v1007q0 19 -24.5 35t-54.5 24.5t-54.5 20t-24.5 23.5t8.5 31.5t24.5 19.5h647q16 0 24.5 -19.5t8.5 -31.5t-24 -23.5t-53 -20t-53 -24.5t-24 -35v-1007q0 -19 24 -35t53 -24.5t53 -20t24 -23.5
t-8.5 -31.5t-24.5 -19.5h-647zM131 1524l10 84q1 13 11.5 21.5t23.5 8.5h463q39 0 33 -36l-13 -84q-5 -33 -34 -33h-461q-39 0 -33 39z" />
    <glyph glyph-name="imacron" unicode="&#x12b;" 
d="M49 0q-16 0 -24.5 15.5t-8.5 27.5q0 11 22 22t49 18.5t49 22t22 33.5v594q0 19 -22 34t-49 22.5t-49 18.5t-22 23q0 36 33 41q19 3 81.5 12t78 11.5t59.5 11t64.5 16t52 20t61.5 28.5q37 22 60 22q9 0 15.5 -7t6.5 -21v-826q0 -19 22 -33.5t48 -22t48 -18.5t22 -22
q0 -12 -8.5 -27.5t-24.5 -15.5h-586zM72 1180l10 84q1 13 11.5 21.5t23.5 8.5h463q38 0 32 -37l-12 -83q-5 -33 -35 -33h-461q-38 0 -32 39z" />
    <glyph glyph-name="Ibreve" unicode="&#x12c;" horiz-adv-x="800" 
d="M76 0q-16 0 -24.5 19.5t-8.5 31.5t24.5 23.5t54.5 20t54.5 24.5t24.5 35v1007q0 19 -24.5 35t-54.5 24.5t-54.5 20t-24.5 23.5t8.5 31.5t24.5 19.5h647q16 0 24.5 -19.5t8.5 -31.5t-24 -23.5t-53 -20t-53 -24.5t-24 -35v-1007q0 -19 24 -35t53 -24.5t53 -20t24 -23.5
t-8.5 -31.5t-24.5 -19.5h-647zM104 1679q-3 11 4.5 19t22.5 8h94q21 0 31 -29q41 -106 145 -106q53 0 90.5 29t55.5 77q11 29 33 29h90q15 0 22 -8t4 -19q-29 -128 -100 -188.5t-195 -60.5q-125 0 -196.5 60.5t-100.5 188.5z" />
    <glyph glyph-name="ibreve" unicode="&#x12d;" 
d="M49 0q-16 0 -24.5 15.5t-8.5 27.5q0 11 22 22t49 18.5t49 22t22 33.5v594q0 19 -22 34t-49 22.5t-49 18.5t-22 23q0 36 33 41q19 3 81.5 12t78 11.5t59.5 11t64.5 16t52 20t61.5 28.5q37 22 60 22q9 0 15.5 -7t6.5 -21v-826q0 -19 22 -33.5t48 -22t48 -18.5t22 -22
q0 -12 -8.5 -27.5t-24.5 -15.5h-586zM45 1335q-3 11 4.5 19t22.5 8h94q21 0 31 -29q41 -106 145 -106q105 0 145 106q11 29 33 29h90q15 0 22.5 -8t4.5 -19q-29 -128 -100 -189t-195 -61q-125 0 -196.5 60.5t-100.5 189.5z" />
    <glyph glyph-name="Iogonek" unicode="&#x12e;" horiz-adv-x="800" 
d="M76 0q-16 0 -24.5 19.5t-8.5 31.5t24.5 23.5t54.5 20t54.5 24.5t24.5 35v1007q0 19 -24.5 35t-54.5 24.5t-54.5 20t-24.5 23.5t8.5 31.5t24.5 19.5h647q16 0 24.5 -19.5t8.5 -31.5t-24 -23.5t-53 -20t-53 -24.5t-24 -35v-1007q0 -19 24 -35t53 -24.5t53 -20t24 -23.5
t-8.5 -31.5t-24.5 -19.5h-98q-154 -109 -154 -225q0 -43 23 -60.5t69 -17.5q60 0 107.5 11t54.5 11q27 0 27 -28q0 -51 -88.5 -96.5t-188.5 -45.5q-93 0 -165 47t-72 134q0 90 68 160.5t177 109.5h-407z" />
    <glyph glyph-name="iogonek" unicode="&#x12f;" 
d="M49 0q-16 0 -24.5 15.5t-8.5 27.5q0 11 22 22t49 18.5t49 22t22 33.5v594q0 19 -22 34t-49 22.5t-49 18.5t-22 23q0 36 33 41q19 3 81.5 12t78 11.5t59.5 11t64.5 16t52 20t61.5 28.5q37 22 60 22q9 0 15.5 -7t6.5 -21v-826q0 -19 22 -33.5t48 -22t48 -18.5t22 -22
q0 -12 -8.5 -27.5t-24.5 -15.5h-172q-129 -99 -129 -207q0 -43 23 -60.5t69 -17.5q60 0 107.5 11.5t54.5 11.5q26 0 26 -29q0 -51 -88 -96t-188 -45q-59 0 -111.5 18t-89.5 60.5t-37 101.5q0 80 55 145t146 107h-252zM182 1223q0 63 46 105t114 42t115 -42t47 -105
q0 -57 -48 -100.5t-114 -43.5t-113 43.5t-47 100.5z" />
    <glyph glyph-name="Idotaccent" unicode="&#x130;" horiz-adv-x="800" 
d="M76 0q-16 0 -24.5 19.5t-8.5 31.5t24.5 23.5t54.5 20t54.5 24.5t24.5 35v1007q0 19 -24.5 35t-54.5 24.5t-54.5 20t-24.5 23.5t8.5 31.5t24.5 19.5h647q16 0 24.5 -19.5t8.5 -31.5t-24 -23.5t-53 -20t-53 -24.5t-24 -35v-1007q0 -19 24 -35t53 -24.5t53 -20t24 -23.5
t-8.5 -31.5t-24.5 -19.5h-647zM242 1567q0 63 45.5 105t113.5 42t115 -42t47 -105q0 -57 -48 -100.5t-114 -43.5t-112.5 43.5t-46.5 100.5z" />
    <glyph glyph-name="dotlessi" unicode="&#x131;" 
d="M49 0q-16 0 -24.5 15.5t-8.5 27.5q0 11 22 22t49 18.5t49 22t22 33.5v594q0 19 -22 34t-49 22.5t-49 18.5t-22 23q0 36 33 41q19 3 81.5 12t78 11.5t59.5 11t64.5 16t52 20t61.5 28.5q37 22 60 22q9 0 15.5 -7t6.5 -21v-826q0 -19 22 -33.5t48 -22t48 -18.5t22 -22
q0 -12 -8.5 -27.5t-24.5 -15.5h-586z" />
    <glyph glyph-name="uni0136" unicode="&#x136;" horiz-adv-x="1550" 
d="M829 0q-14 0 -25 21t-11 36q0 13 18.5 20.5t40.5 12t40.5 19t18.5 38.5v52q0 49 -22 82l-219 319q-23 41 4 68l287 278q29 29 12 62l-117 190q-10 15 -27 25t-31 14t-25 10t-11 15q0 14 9.5 33.5t25.5 19.5h620q29 0 33.5 -18.5t-20.5 -43.5l-408 -397q-28 -32 -6 -63
l403 -617q18 -30 51.5 -51t62 -29.5t50 -19t21.5 -23.5q0 -14 -10.5 -33.5t-28.5 -19.5h-736zM41 51q0 12 24.5 23.5t54.5 20t54.5 24.5t24.5 35v1007q0 19 -24.5 35t-54.5 24.5t-54.5 20t-24.5 23.5t8.5 31.5t24.5 19.5h583q15 0 24 -20.5t9 -34.5q0 -10 -14 -20.5t-31 -19
t-31 -24.5t-14 -35v-1007q0 -19 18.5 -35t41 -24.5t41 -19.5t18.5 -22q0 -13 -8 -33t-23 -20h-614q-16 0 -24.5 19.5t-8.5 31.5zM633 -211q0 69 43 104t108 35q76 0 114 -51.5t38 -122.5q0 -107 -72.5 -178.5t-148.5 -71.5q-39 0 -39 17t21 36t42 42t21 49q0 13 -6.5 20
t-12.5 8.5t-22 4.5q-86 11 -86 108z" />
    <glyph glyph-name="uni0137" unicode="&#x137;" horiz-adv-x="1390" 
d="M49 0q-16 0 -24.5 15.5t-8.5 27.5q0 11 22 22t49 18.5t49 22t22 33.5v1037q0 19 -22 34t-49 23t-49 19t-22 24q0 11 7.5 23.5t25.5 15.5q157 22 240 45t160 78q33 26 57 26q22 0 22 -30v-1295q0 -19 20 -33.5t44.5 -22t44.5 -18.5t20 -22q0 -12 -8.5 -27.5t-23.5 -15.5
h-576zM535 -211q0 69 43 104t108 35q76 0 114 -51.5t38 -122.5q0 -107 -73 -178.5t-149 -71.5q-38 0 -38 17t21 36t42 42t21 49q0 13 -6.5 20t-12.5 8.5t-22 4.5q-86 11 -86 108zM590 481q-21 30 12 56l234 161q30 21 16 45l-76 113q-11 15 -32 25.5t-39 15t-32 13t-14 20.5
q0 10 8 25.5t23 15.5h586q25 0 27 -17t-21 -32l-367 -256q-19 -12 -4 -33l355 -498q18 -27 61.5 -43t76 -26t32.5 -23q0 -12 -8.5 -27.5t-24.5 -15.5h-653q-12 0 -22.5 16t-10.5 27t14.5 18t31.5 10.5t31.5 15t14.5 30.5v43q0 40 -18 63z" />
    <glyph glyph-name="Lacute" unicode="&#x139;" horiz-adv-x="1277" 
d="M74 0q-16 0 -24.5 19.5t-8.5 31.5t24.5 23.5t53.5 20t53.5 24.5t24.5 35v1007q0 19 -24.5 35t-53.5 24.5t-53.5 20t-24.5 23.5t8.5 31.5t24.5 19.5h647q13 0 22 -20.5t9 -32.5q0 -11 -24 -33t-53 -43.5t-53 -47t-24 -44.5v-912q0 -21 11 -34t32 -13h117q20 0 37.5 9.5
t52.5 43.5l350 363q32 30 52 19.5t12 -46.5l-99 -471q-5 -29 -17 -41t-44 -12h-1028zM356 1446q-10 31 21 45l348 160q32 15 43.5 20t28.5 10t32 5q43 0 70 -33.5t29 -75.5q2 -27 -15.5 -55.5t-66.5 -36.5l-432 -84q-37 -9 -47 20z" />
    <glyph glyph-name="lacute" unicode="&#x13a;" 
d="M49 0q-16 0 -24.5 16t-8.5 27t22 22t49 19.5t49 24t22 34.5v1026q0 19 -22 34t-49 23.5t-49 20t-22 25.5q0 6 2.5 14t10.5 17t20 10q136 12 193.5 22t165.5 39q92 21 98 21q22 0 22 -31v-1221q0 -19 22 -34.5t48 -24t48 -19.5t22 -22q0 -12 -8.5 -27.5t-24.5 -15.5h-586z
M80 1440q-11 32 20 45l349 160q72 34 104 34q43 0 69.5 -33t28.5 -75q2 -27 -15.5 -55.5t-66.5 -36.5l-432 -84q-37 -9 -47 20z" />
    <glyph glyph-name="uni013B" unicode="&#x13b;" horiz-adv-x="1277" 
d="M74 0q-16 0 -24.5 19.5t-8.5 31.5t24.5 23.5t53.5 20t53.5 24.5t24.5 35v1007q0 19 -24.5 35t-53.5 24.5t-53.5 20t-24.5 23.5t8.5 31.5t24.5 19.5h647q13 0 22 -20.5t9 -32.5q0 -11 -24 -33t-53 -43.5t-53 -47t-24 -44.5v-912q0 -21 11 -34t32 -13h117q20 0 37.5 9.5
t52.5 43.5l350 363q32 30 52 19.5t12 -46.5l-99 -471q-5 -29 -17 -41t-44 -12h-1028zM487 -211q0 69 43.5 104t108.5 35q76 0 114 -51.5t38 -122.5q0 -107 -73 -178.5t-149 -71.5q-39 0 -39 17t21 36t42 42t21 49q0 13 -6.5 20t-12.5 8.5t-22 4.5q-86 11 -86 108z" />
    <glyph glyph-name="uni013C" unicode="&#x13c;" 
d="M49 0q-16 0 -24.5 15.5t-8.5 27.5q0 11 22 22t49 18.5t49 22t22 33.5v1037q0 19 -22 34t-49 23t-49 19t-22 24q0 11 7.5 23.5t25.5 15.5q157 22 240 45t160 78q33 26 57 26q22 0 22 -30v-1295q0 -19 22 -33.5t48 -22t48 -18.5t22 -22q0 -12 -8.5 -27.5t-24.5 -15.5h-586z
M190 -211q0 69 43.5 104t108.5 35q76 0 114 -51.5t38 -122.5q0 -107 -73 -178.5t-149 -71.5q-39 0 -39 17t21 36t42 42t21 49q0 13 -6.5 20t-12.5 8.5t-22 4.5q-86 11 -86 108z" />
    <glyph glyph-name="Lcaron" unicode="&#x13d;" horiz-adv-x="1286" 
d="M74 0q-16 0 -24.5 19.5t-8.5 31.5t24.5 23.5t53.5 20t53.5 24.5t24.5 35v1007q0 19 -24.5 35t-53.5 24.5t-53.5 20t-24.5 23.5t8.5 31.5t24.5 19.5h647q13 0 22 -20.5t9 -32.5q0 -11 -24 -33t-53 -43.5t-53 -47t-24 -44.5v-912q0 -21 11 -34t32 -13h117q20 0 37.5 9.5
t52.5 43.5l350 363q32 30 52 19.5t12 -46.5l-99 -471q-5 -29 -17 -41t-44 -12h-1028zM864 952q0 11 25 24t55 25t55 35.5t25 53.5q0 25 -27 40q-4 2 -19 10t-23 12.5t-21 15.5t-19.5 21.5t-12 27t-5.5 36.5q0 61 36.5 99.5t119.5 38.5q91 0 131.5 -56t40.5 -135
q0 -80 -47.5 -149t-116 -106.5t-137.5 -39.5q-28 0 -44 15t-16 32z" />
    <glyph glyph-name="lcaron" unicode="&#x13e;" horiz-adv-x="962" 
d="M49 0q-16 0 -24.5 15.5t-8.5 27.5q0 11 22 22t49 18.5t49 22t22 33.5v1037q0 19 -22 34t-49 23t-49 19t-22 24q0 11 7.5 23.5t25.5 15.5q157 22 240 45t160 78q33 26 57 26q22 0 22 -30v-1295q0 -19 22 -33.5t48 -22t48 -18.5t22 -22q0 -12 -8.5 -27.5t-24.5 -15.5h-586z
M664 952q0 11 25 24t54.5 25t54.5 35.5t25 53.5q0 25 -26 40q-1 1 -22.5 12t-29 17t-22.5 20t-21 32.5t-6 41.5q0 61 36.5 99.5t119.5 38.5q91 0 131.5 -56t40.5 -135q0 -80 -47.5 -149t-116 -106.5t-137.5 -39.5q-28 0 -43.5 15t-15.5 32z" />
    <glyph glyph-name="Ldot" unicode="&#x13f;" horiz-adv-x="1277" 
d="M936 612q-67 0 -121.5 40.5t-54.5 111.5q0 70 45.5 119t122.5 49q67 0 121.5 -40.5t54.5 -111.5q0 -70 -45.5 -119t-122.5 -49zM41 51q0 12 24.5 23.5t53.5 20t53.5 24.5t24.5 35v1007q0 19 -24.5 35t-53.5 24.5t-53.5 20t-24.5 23.5t8.5 31.5t24.5 19.5h647
q13 0 22 -20.5t9 -32.5q0 -11 -24 -33t-53 -43.5t-53 -47t-24 -44.5v-912q0 -21 11 -34t32 -13h117q20 0 37.5 9.5t52.5 43.5l350 363q32 30 52 19.5t12 -46.5l-99 -471q-5 -29 -17 -41t-44 -12h-1028q-16 0 -24.5 19.5t-8.5 31.5z" />
    <glyph glyph-name="ldot" unicode="&#x140;" horiz-adv-x="1032" 
d="M838 561q-67 0 -120.5 40t-53.5 110q0 69 45 117.5t120 48.5q67 0 122 -40t55 -110t-46 -118t-122 -48zM16 43q0 11 22 22t49 18.5t49 22t22 33.5v1037q0 19 -22 34t-49 23t-49 19t-22 24q0 11 7.5 23.5t25.5 15.5q157 22 240 45t160 78q33 26 57 26q22 0 22 -30v-1295
q0 -19 22 -33.5t48 -22t48 -18.5t22 -22q0 -12 -8.5 -27.5t-24.5 -15.5h-586q-16 0 -24.5 15.5t-8.5 27.5z" />
    <glyph glyph-name="Lslash" unicode="&#x141;" horiz-adv-x="1298" 
d="M129 436q-29 -7 -39 19l-24 69q-4 12 1 23t17 16l113 41v557q0 19 -24.5 35t-53.5 24.5t-53.5 20t-24.5 23.5t8.5 31.5t24.5 19.5h647q13 0 22 -20.5t9 -32.5q0 -11 -24 -33t-53 -43.5t-53 -47t-24 -44.5v-344l229 84q12 4 23.5 -1t13.5 -16l27 -69q6 -12 0 -23t-19 -16
l-274 -101v-426q0 -21 11 -34t32 -13h117q20 0 37.5 9.5t52.5 43.5l350 363q32 30 52 19.5t12 -46.5l-99 -471q-5 -29 -17 -41t-44 -12h-1028q-16 0 -24.5 19.5t-8.5 31.5t24.5 23.5t53.5 20t53.5 24.5t24.5 35v307z" />
    <glyph glyph-name="lslash" unicode="&#x142;" 
d="M100 461q-11 -6 -22.5 -2.5t-16.5 14.5l-34 62q-6 11 -2.5 22t14.5 16l119 62v541q0 19 -22 34t-49 23t-49 19t-22 24q0 11 7.5 23.5t25.5 15.5q157 22 240 45t160 78q33 26 57 26q22 0 22 -30v-605l54 29q11 7 23 3.5t18 -15.5l32 -60q13 -27 -12 -41l-115 -59v-547
q0 -19 22 -33.5t48 -22t48 -18.5t22 -22q0 -12 -8.5 -27.5t-24.5 -15.5h-586q-16 0 -24.5 15.5t-8.5 27.5q0 11 22 22t49 18.5t49 22t22 33.5v353z" />
    <glyph glyph-name="Nacute" unicode="&#x143;" horiz-adv-x="1492" 
d="M1305 33q0 -38 -31.5 -46.5t-59.5 13.5l-874 705q-12 10 -21.5 6t-9.5 -17v-350q0 -24 81 -89.5t162 -127t81 -76.5q0 -11 -9 -31t-24 -20h-532q-15 0 -24 20t-9 31q0 12 24 28.5t53.5 30.5t53.5 34.5t24 39.5v908q0 21 -31.5 48t-69.5 48t-69.5 42.5t-31.5 33.5
t8.5 31.5t23.5 19.5h216q17 0 31 -5t20.5 -9.5t25.5 -18.5l832 -657q41 -27 41 14v348q0 19 -51.5 62t-113.5 84t-113.5 80t-51.5 51q0 11 9 31t24 20h608q16 0 24.5 -19.5t8.5 -31.5t-35 -33t-77.5 -41t-77.5 -45.5t-35 -44.5v-1067zM467 1446q-11 32 20 45l349 160
q32 15 43.5 20t28.5 10t32 5q43 0 69.5 -33.5t28.5 -75.5q2 -27 -15.5 -55.5t-66.5 -36.5l-432 -84q-37 -9 -47 20z" />
    <glyph glyph-name="nacute" unicode="&#x144;" horiz-adv-x="1349" 
d="M49 0q-16 0 -24.5 15.5t-8.5 27.5q0 11 22 22t49 18.5t49 22t22 33.5v592q0 19 -22 34t-49 22.5t-49 18.5t-22 23q0 13 7 25.5t24 15.5q33 6 102.5 17t102 17t83 21t95.5 36q50 22 59 22q25 0 25 -27v-192q0 -10 8.5 -13.5t20.5 7.5q3 3 30.5 36.5t58 63t75 64t103 55
t120.5 20.5q115 0 189.5 -71.5t74.5 -220.5v-566q0 -19 21.5 -33.5t48 -22t48 -18.5t21.5 -22q0 -12 -8.5 -27.5t-24.5 -15.5h-559q-15 0 -23.5 15.5t-8.5 27.5q0 11 18 21.5t39 18.5t39 22.5t18 33.5v502q0 141 -108 141q-65 0 -126 -56t-61 -136v-451q0 -19 18 -33.5
t39.5 -22.5t39.5 -18.5t18 -21.5t-9 -27t-24 -16h-561zM467 1094q-13 13 12 49l174 227q64 86 133 86q48 0 76.5 -33t28.5 -75q0 -40 -21.5 -69.5t-70.5 -59.5l-264 -158q-20 -8 -27 -6.5t-21 14.5z" />
    <glyph glyph-name="uni0145" unicode="&#x145;" horiz-adv-x="1492" 
d="M1305 33q0 -38 -31.5 -46.5t-59.5 13.5l-874 705q-12 10 -21.5 6t-9.5 -17v-350q0 -24 81 -89.5t162 -127t81 -76.5q0 -11 -9 -31t-24 -20h-532q-15 0 -24 20t-9 31q0 12 24 28.5t53.5 30.5t53.5 34.5t24 39.5v908q0 21 -31.5 48t-69.5 48t-69.5 42.5t-31.5 33.5
t8.5 31.5t23.5 19.5h216q17 0 31 -5t20.5 -9.5t25.5 -18.5l832 -657q41 -27 41 14v348q0 19 -51.5 62t-113.5 84t-113.5 80t-51.5 51q0 11 9 31t24 20h608q16 0 24.5 -19.5t8.5 -31.5t-35 -33t-77.5 -41t-77.5 -45.5t-35 -44.5v-1067zM635 -211q0 69 43 104t108 35
q76 0 114 -51.5t38 -122.5q0 -107 -72.5 -178.5t-148.5 -71.5q-39 0 -39 17t21 36t42 42t21 49q0 13 -6.5 20t-12.5 8.5t-22 4.5q-86 11 -86 108z" />
    <glyph glyph-name="uni0146" unicode="&#x146;" horiz-adv-x="1349" 
d="M49 0q-16 0 -24.5 15.5t-8.5 27.5q0 11 22 22t49 18.5t49 22t22 33.5v592q0 19 -22 34t-49 22.5t-49 18.5t-22 23q0 13 7 25.5t24 15.5q33 6 102.5 17t102 17t83 21t95.5 36q50 22 59 22q25 0 25 -27v-192q0 -10 8.5 -13.5t20.5 7.5q3 3 30.5 36.5t58 63t75 64t103 55
t120.5 20.5q115 0 189.5 -71.5t74.5 -220.5v-566q0 -19 21.5 -33.5t48 -22t48 -18.5t21.5 -22q0 -12 -8.5 -27.5t-24.5 -15.5h-559q-15 0 -23.5 15.5t-8.5 27.5q0 11 18 21.5t39 18.5t39 22.5t18 33.5v502q0 141 -108 141q-65 0 -126 -56t-61 -136v-451q0 -19 18 -33.5
t39.5 -22.5t39.5 -18.5t18 -21.5t-9 -27t-24 -16h-561zM524 -211q0 69 43.5 104t108.5 35q76 0 113.5 -51.5t37.5 -122.5q0 -107 -72.5 -178.5t-148.5 -71.5q-39 0 -39 17t21 36t42 42t21 49q0 13 -6.5 20t-12.5 8.5t-22 4.5q-86 11 -86 108z" />
    <glyph glyph-name="Ncaron" unicode="&#x147;" horiz-adv-x="1492" 
d="M1305 33q0 -38 -31.5 -46.5t-59.5 13.5l-874 705q-12 10 -21.5 6t-9.5 -17v-350q0 -24 81 -89.5t162 -127t81 -76.5q0 -11 -9 -31t-24 -20h-532q-15 0 -24 20t-9 31q0 12 24 28.5t53.5 30.5t53.5 34.5t24 39.5v908q0 21 -31.5 48t-69.5 48t-69.5 42.5t-31.5 33.5
t8.5 31.5t23.5 19.5h216q17 0 31 -5t20.5 -9.5t25.5 -18.5l832 -657q41 -27 41 14v348q0 19 -51.5 62t-113.5 84t-113.5 80t-51.5 51q0 11 9 31t24 20h608q16 0 24.5 -19.5t8.5 -31.5t-35 -33t-77.5 -41t-77.5 -45.5t-35 -44.5v-1067zM453 1671q-9 11 -6 24t14 13h119
q40 0 59 -22l92 -82q23 -26 43 0l86 82q22 22 60 22h114q12 0 16 -13t-6 -24l-178 -203q-24 -24 -49 -24h-135q-28 0 -49 24z" />
    <glyph glyph-name="ncaron" unicode="&#x148;" horiz-adv-x="1349" 
d="M49 0q-16 0 -24.5 15.5t-8.5 27.5q0 11 22 22t49 18.5t49 22t22 33.5v592q0 19 -22 34t-49 22.5t-49 18.5t-22 23q0 13 7 25.5t24 15.5q33 6 102.5 17t102 17t83 21t95.5 36q50 22 59 22q25 0 25 -27v-192q0 -10 8.5 -13.5t20.5 7.5q3 3 30.5 36.5t58 63t75 64t103 55
t120.5 20.5q115 0 189.5 -71.5t74.5 -220.5v-566q0 -19 21.5 -33.5t48 -22t48 -18.5t21.5 -22q0 -12 -8.5 -27.5t-24.5 -15.5h-559q-15 0 -23.5 15.5t-8.5 27.5q0 11 18 21.5t39 18.5t39 22.5t18 33.5v502q0 141 -108 141q-65 0 -126 -56t-61 -136v-451q0 -19 18 -33.5
t39.5 -22.5t39.5 -18.5t18 -21.5t-9 -27t-24 -16h-561zM379 1327q-9 11 -6 24t14 13h119q39 0 59 -23l92 -81q23 -26 43 0l86 81q23 23 60 23h115q12 0 16 -13t-6 -24l-178 -203q-24 -24 -50 -24h-135q-28 0 -49 24z" />
    <glyph glyph-name="Eng" unicode="&#x14a;" horiz-adv-x="1492" 
d="M940 -436q-87 0 -147 45t-60 127q0 78 53.5 128t141.5 50q47 0 87 -13t62.5 -29t48.5 -29t48 -13q27 0 47 30t21 67t-21 69l-7 4l-874 705q-12 10 -21.5 6t-9.5 -17v-350q0 -24 81 -89.5t162 -127t81 -76.5q0 -11 -9 -31t-24 -20h-532q-15 0 -24 20t-9 31q0 12 24 28.5
t53.5 30.5t53.5 34.5t24 39.5v908q0 21 -31.5 48t-69.5 48t-69.5 42.5t-31.5 33.5t8.5 31.5t23.5 19.5h216q17 0 31 -5t20.5 -9.5t25.5 -18.5l832 -657q41 -27 41 14v348q0 19 -51.5 62t-113.5 84t-113.5 80t-51.5 51q0 11 9 31t24 20h608q16 0 24.5 -19.5t8.5 -31.5
t-35 -33t-77.5 -41t-77.5 -45.5t-35 -44.5v-1123q0 -62 -27.5 -133.5t-74 -134t-116.5 -104t-147 -41.5z" />
    <glyph glyph-name="eng" unicode="&#x14b;" horiz-adv-x="1345" 
d="M870 -326q-84 0 -143 45t-59 123q0 76 49 123t133 47q57 0 102 -21t76 -42t53 -21q18 0 27.5 14t3 33.5t-28.5 34.5l-153 99q-62 38 -84.5 79t-22.5 129v324q0 141 -108 141q-66 0 -126.5 -55.5t-60.5 -136.5v-451q0 -19 18 -33.5t39.5 -22.5t39.5 -18.5t18 -21.5t-9 -27
t-24 -16h-561q-16 0 -24.5 15.5t-8.5 27.5q0 11 22 22t49 18.5t49 22t22 33.5v592q0 19 -22 34t-49 22.5t-49 18.5t-22 23q0 13 7 25.5t24 15.5q33 6 102.5 17t102 17t83 21t95.5 36q48 22 59 22q25 0 25 -27v-192q0 -10 8.5 -13.5t20.5 7.5l30 36q30 37 58.5 64.5t74.5 63
t104 55.5t120 20q115 0 189.5 -71.5t74.5 -220.5v-670q0 -50 -23 -111t-62.5 -117.5t-103 -94.5t-135.5 -38z" />
    <glyph glyph-name="Omacron" unicode="&#x14c;" horiz-adv-x="1531" 
d="M770 -31q-105 0 -206.5 22t-199.5 73t-171.5 125t-118.5 187t-45 251q0 148 51 278.5t144 227.5t232 153.5t306 56.5q74 0 147 -11t146.5 -36t139 -61.5t122.5 -90t98 -119.5t64.5 -153t23.5 -186q0 -147 -51 -277.5t-144 -228t-232 -154.5t-306 -57zM459 905
q0 -134 31 -282t83.5 -273.5t129.5 -207t161 -81.5q98 0 153.5 87t55.5 258q0 100 -18.5 214.5t-54.5 226t-83.5 202t-113 146.5t-135.5 56q-100 0 -154.5 -86t-54.5 -260zM496 1524l10 84q1 13 11.5 21.5t23.5 8.5h463q38 0 32 -36l-12 -84q-5 -33 -35 -33h-461
q-38 0 -32 39z" />
    <glyph glyph-name="omacron" unicode="&#x14d;" horiz-adv-x="1200" 
d="M604 -31q-79 0 -157 16t-154 53t-134 92t-94 139.5t-36 187.5q0 108 39.5 205.5t110.5 172t179.5 118.5t237.5 44q79 0 156.5 -15.5t154.5 -52t134.5 -90.5t93.5 -138t36 -187q0 -109 -39.5 -207.5t-110.5 -173.5t-179.5 -119.5t-237.5 -44.5zM330 1180l10 84
q1 13 11.5 21.5t23.5 8.5h463q38 0 32 -37l-12 -83q-5 -33 -35 -33h-461q-38 0 -32 39zM416 715q0 -144 29.5 -295.5t89 -263t133.5 -111.5q65 0 90.5 53t25.5 156q0 146 -29.5 297.5t-89 263t-133.5 111.5q-65 0 -90.5 -53.5t-25.5 -157.5z" />
    <glyph glyph-name="Obreve" unicode="&#x14e;" horiz-adv-x="1531" 
d="M770 -31q-105 0 -206.5 22t-199.5 73t-171.5 125t-118.5 187t-45 251q0 148 51 278.5t144 227.5t232 153.5t306 56.5q74 0 147 -11t146.5 -36t139 -61.5t122.5 -90t98 -119.5t64.5 -153t23.5 -186q0 -147 -51 -277.5t-144 -228t-232 -154.5t-306 -57zM459 905
q0 -134 31 -282t83.5 -273.5t129.5 -207t161 -81.5q98 0 153.5 87t55.5 258q0 100 -18.5 214.5t-54.5 226t-83.5 202t-113 146.5t-135.5 56q-100 0 -154.5 -86t-54.5 -260zM469 1679q-3 11 4.5 19t22.5 8h94q21 0 31 -29q41 -106 145 -106q105 0 145 106q11 29 33 29h90
q15 0 22.5 -8t4.5 -19q-29 -128 -100 -188.5t-195 -60.5q-125 0 -196.5 60.5t-100.5 188.5z" />
    <glyph glyph-name="obreve" unicode="&#x14f;" horiz-adv-x="1200" 
d="M604 -31q-79 0 -157 16t-154 53t-134 92t-94 139.5t-36 187.5q0 108 39.5 205.5t110.5 172t179.5 118.5t237.5 44q79 0 156.5 -15.5t154.5 -52t134.5 -90.5t93.5 -138t36 -187q0 -109 -39.5 -207.5t-110.5 -173.5t-179.5 -119.5t-237.5 -44.5zM303 1335q-3 11 4.5 19
t22.5 8h94q21 0 31 -29q41 -106 145 -106q105 0 145 106q11 29 33 29h90q15 0 22.5 -8t4.5 -19q-29 -128 -100 -189t-195 -61q-125 0 -196.5 60.5t-100.5 189.5zM416 715q0 -144 29.5 -295.5t89 -263t133.5 -111.5q65 0 90.5 53t25.5 156q0 146 -29.5 297.5t-89 263
t-133.5 111.5q-65 0 -90.5 -53.5t-25.5 -157.5z" />
    <glyph glyph-name="Ohungarumlaut" unicode="&#x150;" horiz-adv-x="1531" 
d="M770 -31q-105 0 -206.5 22t-199.5 73t-171.5 125t-118.5 187t-45 251q0 148 51 278.5t144 227.5t232 153.5t306 56.5q74 0 147 -11t146.5 -36t139 -61.5t122.5 -90t98 -119.5t64.5 -153t23.5 -186q0 -147 -51 -277.5t-144 -228t-232 -154.5t-306 -57zM459 905
q0 -134 31 -282t83.5 -273.5t129.5 -207t161 -81.5q98 0 153.5 87t55.5 258q0 100 -18.5 214.5t-54.5 226t-83.5 202t-113 146.5t-135.5 56q-100 0 -154.5 -86t-54.5 -260zM518 1421l6 183q1 24 19.5 36.5t40.5 12.5q39 0 91 -25t52 -55q0 -39 -27 -70l-92 -117
q-20 -20 -47 -20q-23 0 -34 15.5t-9 39.5zM844 1421l6 183q1 24 19.5 36.5t41.5 12.5q39 0 91.5 -25t52.5 -55q0 -36 -29 -70l-92 -117q-18 -20 -47 -20q-22 0 -33.5 16t-9.5 39z" />
    <glyph glyph-name="ohungarumlaut" unicode="&#x151;" horiz-adv-x="1200" 
d="M604 -31q-79 0 -157 16t-154 53t-134 92t-94 139.5t-36 187.5q0 108 39.5 205.5t110.5 172t179.5 118.5t237.5 44q79 0 156.5 -15.5t154.5 -52t134.5 -90.5t93.5 -138t36 -187q0 -109 -39.5 -207.5t-110.5 -173.5t-179.5 -119.5t-237.5 -44.5zM334 1118l14 258
q1 25 20.5 38t43.5 13q38 0 90.5 -24.5t52.5 -56.5q0 -25 -29 -70l-108 -180q-13 -25 -47 -25q-17 0 -27.5 13.5t-9.5 33.5zM416 715q0 -144 29.5 -295.5t89 -263t133.5 -111.5q65 0 90.5 53t25.5 156q0 146 -29.5 297.5t-89 263t-133.5 111.5q-65 0 -90.5 -53.5
t-25.5 -157.5zM645 1118l17 258q1 25 20 38t43 13q38 0 90.5 -24.5t52.5 -56.5q0 -27 -28 -70l-109 -180q-13 -25 -49 -25q-17 0 -27.5 13.5t-9.5 33.5z" />
    <glyph glyph-name="OE" unicode="&#x152;" horiz-adv-x="2131" 
d="M770 -31q-105 0 -206.5 22t-199.5 73t-171.5 125t-118.5 187t-45 251q0 148 51 278.5t144 227.5t232 153.5t306 56.5q121 0 235 -28h938q20 0 33.5 -13t13.5 -32l23 -439q0 -28 -21.5 -29.5t-41.5 27.5l-248 338q-15 23 -49 23h-193q-13 0 -21 -8.5t-8 -22.5v-393
q0 -29 29 -29h84q14 0 29 15l157 184q14 16 28.5 10t14.5 -24v-525q0 -19 -15.5 -25t-27.5 11l-157 215q-11 14 -29 14h-84q-29 0 -29 -30v-400q0 -47 41 -47h185q48 0 88 53l239 330q23 32 46 32t20 -40l-39 -457q-6 -53 -59 -53h-949q-119 -31 -225 -31zM459 905
q0 -134 31.5 -282t84 -273.5t129.5 -207t160 -81.5q24 0 47 7t47.5 24t42 53.5t21.5 87.5v357q-9 71 -29.5 155t-54 174.5t-73.5 163.5t-92.5 120.5t-106.5 47.5q-98 0 -152.5 -86t-54.5 -260z" />
    <glyph glyph-name="oe" unicode="&#x153;" horiz-adv-x="1923" 
d="M604 -31q-79 0 -157 16t-154 53t-134 92t-94 139.5t-36 187.5q0 108 39.5 205.5t110.5 172t179.5 118.5t237.5 44q106 0 211.5 -29t185.5 -89q150 118 363 118q201 0 334 -100.5t133 -243.5q0 -28 -5.5 -46.5t-16.5 -26t-20 -9.5t-22 -2h-547q-11 0 -17 -2t-11.5 -13
t-5.5 -32q0 -50 19.5 -98.5t56.5 -91t100 -68.5t141 -26q187 0 295 120q4 5 15.5 18.5t16 18t13 12.5t14.5 10.5t13 2.5q26 0 26 -45q0 -37 -16 -85t-55 -105.5t-95.5 -104.5t-148.5 -79t-203 -32q-235 0 -395 123q-152 -123 -371 -123zM416 715q0 -144 29.5 -295.5t89 -263
t133.5 -111.5q65 0 90.5 53t25.5 156q0 146 -29.5 297.5t-89 263t-133.5 111.5q-65 0 -90.5 -53.5t-25.5 -157.5zM1167 717q0 -24 7.5 -37t14 -14.5t17.5 -1.5h189q12 0 18.5 1t16 7t14 21.5t4.5 41.5q0 76 -40 132.5t-101 56.5q-36 0 -65 -24t-44.5 -59.5t-23 -67.5
t-7.5 -56z" />
    <glyph glyph-name="Racute" unicode="&#x154;" horiz-adv-x="1484" 
d="M74 0q-16 0 -24.5 19.5t-8.5 31.5t24.5 23.5t53.5 20t53.5 24.5t24.5 35v1007q0 19 -24.5 35t-53.5 24.5t-53.5 20t-24.5 23.5t8.5 31.5t24.5 19.5h827q178 0 299 -82.5t121 -224.5q0 -108 -78 -193t-205 -121q-18 -5 -18 -14q0 -14 18 -14q70 -4 129 -101l179 -352
q22 -48 57.5 -78.5t64.5 -39.5t50.5 -18.5t21.5 -23.5t-10.5 -33.5t-28.5 -19.5h-401q-63 0 -100 39.5t-64 101.5l-158 342q-17 42 -35.5 68t-68.5 70q-17 19 -11.5 39t27.5 30l92 41q56 23 89.5 73.5t33.5 153.5q0 271 -241 271q-43 0 -54.5 -8.5t-11.5 -28.5v-1038
q0 -19 24.5 -35t53.5 -24.5t53.5 -20t24.5 -23.5t-8 -31.5t-23 -19.5h-649zM438 1446q-10 31 21 45l348 160q32 15 43.5 20t28.5 10t32 5q43 0 70 -33.5t29 -75.5q2 -27 -15.5 -55.5t-66.5 -36.5l-432 -84q-37 -9 -47 20z" />
    <glyph glyph-name="racute" unicode="&#x155;" horiz-adv-x="1069" 
d="M49 0q-16 0 -24.5 15.5t-8.5 27.5q0 11 22 22t49 18.5t49 22t22 33.5v594q0 19 -22 33.5t-49 22t-49 18.5t-22 24t7 25.5t24 15.5q30 5 97.5 15.5t91.5 16t70 20.5t93 39q45 22 60 22q19 0 24 -29l39 -184q1 -12 9.5 -12.5t17.5 8.5q5 8 21.5 37.5t29 50t37.5 49.5t50 47
t63 31.5t81 13.5q106 0 162 -65.5t56 -167.5q0 -87 -45.5 -134.5t-129.5 -47.5q-46 0 -84 15.5t-62 37t-44 43.5t-39 37.5t-37 15.5q-35 0 -57.5 -42.5t-22.5 -90.5v-459q0 -23 45 -40t90.5 -30t45.5 -28q0 -11 -8.5 -26t-24.5 -15h-627zM322 1094q-13 13 12 49l174 227
q64 86 133 86q48 0 76 -33t28 -75q0 -40 -21.5 -69.5t-70.5 -59.5l-264 -158q-11 -7 -19.5 -7t-13 3t-14.5 12z" />
    <glyph glyph-name="uni0156" unicode="&#x156;" horiz-adv-x="1484" 
d="M74 0q-16 0 -24.5 19.5t-8.5 31.5t24.5 23.5t53.5 20t53.5 24.5t24.5 35v1007q0 19 -24.5 35t-53.5 24.5t-53.5 20t-24.5 23.5t8.5 31.5t24.5 19.5h827q178 0 299 -82.5t121 -224.5q0 -108 -78 -193t-205 -121q-18 -5 -18 -14q0 -14 18 -14q70 -4 129 -101l179 -352
q22 -48 57.5 -78.5t64.5 -39.5t50.5 -18.5t21.5 -23.5t-10.5 -33.5t-28.5 -19.5h-401q-63 0 -100 39.5t-64 101.5l-158 342q-17 42 -35.5 68t-68.5 70q-17 19 -11.5 39t27.5 30l92 41q56 23 89.5 73.5t33.5 153.5q0 271 -241 271q-43 0 -54.5 -8.5t-11.5 -28.5v-1038
q0 -19 24.5 -35t53.5 -24.5t53.5 -20t24.5 -23.5t-8 -31.5t-23 -19.5h-649zM649 -211q0 69 43.5 104t108.5 35q76 0 113.5 -51.5t37.5 -122.5q0 -107 -72.5 -178.5t-148.5 -71.5q-39 0 -39 17t21 36t42 42t21 49q0 13 -6.5 20t-12.5 8.5t-22 4.5q-86 11 -86 108z" />
    <glyph glyph-name="uni0157" unicode="&#x157;" horiz-adv-x="1069" 
d="M49 0q-16 0 -24.5 15.5t-8.5 27.5q0 11 22 22t49 18.5t49 22t22 33.5v594q0 19 -22 33.5t-49 22t-49 18.5t-22 24t7 25.5t24 15.5q30 5 97.5 15.5t91.5 16t70 20.5t93 39q45 22 60 22q19 0 24 -29l39 -184q1 -12 9.5 -12.5t17.5 8.5q5 8 21.5 37.5t29 50t37.5 49.5t50 47
t63 31.5t81 13.5q106 0 162 -65.5t56 -167.5q0 -87 -45.5 -134.5t-129.5 -47.5q-46 0 -84 15.5t-62 37t-44 43.5t-39 37.5t-37 15.5q-35 0 -57.5 -42.5t-22.5 -90.5v-459q0 -23 45 -40t90.5 -30t45.5 -28q0 -11 -8.5 -26t-24.5 -15h-627zM193 -211q0 69 43 104t108 35
q76 0 114 -51.5t38 -122.5q0 -107 -73 -178.5t-149 -71.5q-38 0 -38 17t21 36t41.5 42t20.5 49q0 13 -6 20t-12.5 8.5t-21.5 4.5q-86 11 -86 108z" />
    <glyph glyph-name="Rcaron" unicode="&#x158;" horiz-adv-x="1484" 
d="M74 0q-16 0 -24.5 19.5t-8.5 31.5t24.5 23.5t53.5 20t53.5 24.5t24.5 35v1007q0 19 -24.5 35t-53.5 24.5t-53.5 20t-24.5 23.5t8.5 31.5t24.5 19.5h827q178 0 299 -82.5t121 -224.5q0 -108 -78 -193t-205 -121q-18 -5 -18 -14q0 -14 18 -14q70 -4 129 -101l179 -352
q22 -48 57.5 -78.5t64.5 -39.5t50.5 -18.5t21.5 -23.5t-10.5 -33.5t-28.5 -19.5h-401q-63 0 -100 39.5t-64 101.5l-158 342q-17 42 -35.5 68t-68.5 70q-17 19 -11.5 39t27.5 30l92 41q56 23 89.5 73.5t33.5 153.5q0 271 -241 271q-43 0 -54.5 -8.5t-11.5 -28.5v-1038
q0 -19 24.5 -35t53.5 -24.5t53.5 -20t24.5 -23.5t-8 -31.5t-23 -19.5h-649zM426 1671q-9 11 -6 24t14 13h119q40 0 59 -22l93 -82q23 -26 43 0l86 82q22 22 59 22h115q12 0 16 -13t-6 -24l-178 -203q-24 -24 -49 -24h-136q-28 0 -49 24z" />
    <glyph glyph-name="rcaron" unicode="&#x159;" horiz-adv-x="1069" 
d="M49 0q-16 0 -24.5 15.5t-8.5 27.5q0 11 22 22t49 18.5t49 22t22 33.5v594q0 19 -22 33.5t-49 22t-49 18.5t-22 24t7 25.5t24 15.5q30 5 97.5 15.5t91.5 16t70 20.5t93 39q45 22 60 22q19 0 24 -29l39 -184q1 -12 9.5 -12.5t17.5 8.5q5 8 21.5 37.5t29 50t37.5 49.5t50 47
t63 31.5t81 13.5q106 0 162 -65.5t56 -167.5q0 -87 -45.5 -134.5t-129.5 -47.5q-46 0 -84 15.5t-62 37t-44 43.5t-39 37.5t-37 15.5q-35 0 -57.5 -42.5t-22.5 -90.5v-459q0 -23 45 -40t90.5 -30t45.5 -28q0 -11 -8.5 -26t-24.5 -15h-627zM233 1327q-9 11 -5.5 24t14.5 13
h118q40 0 60 -23l92 -81q23 -26 43 0l86 81q23 23 59 23h115q12 0 16 -13t-6 -24l-178 -203q-24 -24 -49 -24h-135q-28 0 -49 24z" />
    <glyph glyph-name="Sacute" unicode="&#x15a;" horiz-adv-x="1275" 
d="M655 -31q-96 0 -184.5 26t-143.5 51.5t-71 25.5q-20 0 -72 -43t-78 -43q-20 0 -27 10.5t-5 32.5l24 481q1 32 25 36t49 -24l289 -358q41 -49 87.5 -77t119.5 -28q96 0 155.5 50.5t59.5 134.5q0 51 -26.5 91.5t-71 68t-102.5 50t-122 43.5t-128 43t-122 53.5t-102.5 70.5
t-71 97.5t-26.5 131.5q0 132 79 235.5t212 159t294 55.5q118 0 248.5 -25.5t190.5 -60.5q28 -17 33 -32.5t-3 -34.5l-84 -287q-9 -27 -30.5 -27.5t-44.5 23.5l-258 268q-1 1 -8.5 9.5t-10.5 11.5t-12 11.5t-15.5 13t-17 11.5t-20.5 11t-22.5 8t-26.5 6t-29 2
q-76 0 -117 -41.5t-41 -103.5q0 -55 28 -98t75 -71.5t108.5 -52.5t129 -44.5t135.5 -42.5t129.5 -52t108.5 -67t75 -93t28 -126q0 -89 -44.5 -177t-121 -157.5t-188 -112.5t-236.5 -43zM354 1446q-10 31 21 45l348 160q32 15 43.5 20t28.5 10t32 5q43 0 70 -33.5t29 -75.5
q2 -27 -15.5 -55.5t-66.5 -36.5l-432 -84q-37 -9 -47 20z" />
    <glyph glyph-name="sacute" unicode="&#x15b;" horiz-adv-x="1048" 
d="M457 -31q-91 0 -187 22.5t-165.5 66.5t-69.5 96q0 49 48.5 116.5t88.5 67.5q20 0 44 -20.5t47 -51.5t54.5 -67.5t64 -67.5t78.5 -51.5t95 -20.5q62 0 89.5 27t27.5 70t-32 75t-82.5 53t-112 40t-123 43t-112 55t-82.5 84t-32 123q0 161 144 264.5t372 103.5
q44 0 89.5 -4.5t102.5 -17t92.5 -41t35.5 -70.5q0 -48 -35 -115t-78 -67q-23 0 -51 23.5t-58 57t-64.5 67.5t-81.5 57.5t-97 23.5q-88 0 -88 -73q0 -47 33.5 -82t86.5 -58t117.5 -43.5t129 -44.5t117.5 -54.5t86.5 -80.5t33.5 -115q0 -69 -41 -139t-110 -125.5t-168 -91
t-207 -35.5zM324 1094q-13 13 12 49l174 227q64 86 133 86q48 0 76.5 -33t28.5 -75q0 -40 -22 -69.5t-71 -59.5l-264 -158q-11 -7 -19.5 -7t-13 3t-14.5 12z" />
    <glyph glyph-name="Scedilla" unicode="&#x15e;" horiz-adv-x="1275" 
d="M621 -457q-93 0 -168.5 39t-75.5 86q0 15 8.5 30t26.5 15q17 0 37.5 -16.5t52 -33.5t76.5 -17q43 0 69.5 23t26.5 65q0 80 -92 80q-16 0 -36 -2t-28 -2q-50 0 -37 43l43 129q-79 15 -166 52.5t-102 37.5q-20 0 -72 -43t-78 -43q-20 0 -27 10.5t-5 32.5l24 481q1 32 25 36
t49 -24l289 -358q41 -49 87.5 -77t119.5 -28q96 0 155.5 50.5t59.5 134.5q0 51 -26.5 91.5t-71 68t-102.5 50t-122 43.5t-128 43t-122 53.5t-102.5 70.5t-71 97.5t-26.5 131.5q0 132 79 235.5t212 159t294 55.5q118 0 248.5 -25.5t190.5 -60.5q28 -17 33 -32.5t-3 -34.5
l-84 -287q-9 -27 -30.5 -27.5t-44.5 23.5l-258 268q-1 1 -8.5 9.5t-10.5 11.5t-12 11.5t-15.5 13t-17 11.5t-20.5 11t-22.5 8t-26.5 6t-29 2q-76 0 -117 -41.5t-41 -103.5q0 -55 28 -98t75 -71.5t108.5 -52.5t129 -44.5t135.5 -42.5t129.5 -52t108.5 -67t75 -93t28 -126
q0 -88 -43.5 -175.5t-118.5 -156.5t-185.5 -113t-233.5 -45l-23 -63h49q96 0 152.5 -37t56.5 -107q0 -88 -80 -153.5t-198 -65.5z" />
    <glyph glyph-name="scedilla" unicode="&#x15f;" horiz-adv-x="1048" 
d="M500 -457q-93 0 -168.5 39t-75.5 86q0 15 8.5 30t26.5 15q17 0 37.5 -16.5t52 -33.5t76.5 -17q43 0 69.5 23t26.5 65q0 80 -92 80q-16 0 -36 -2t-28 -2q-50 0 -37 43l39 118q-87 7 -168.5 31t-138.5 64.5t-57 87.5q0 49 48.5 116.5t88.5 67.5q20 0 44 -20.5t47 -51.5
t54.5 -67.5t64 -67.5t78.5 -51.5t95 -20.5q62 0 89.5 27t27.5 70t-32 75t-82.5 53t-112 40t-123 43t-112 55t-82.5 84t-32 123q0 161 144 264.5t372 103.5q44 0 89.5 -4.5t102.5 -17t92.5 -41t35.5 -70.5q0 -48 -35 -115t-78 -67q-23 0 -51 23.5t-58 57t-64.5 67.5
t-81.5 57.5t-97 23.5q-88 0 -88 -73q0 -47 33.5 -82t86.5 -58t117.5 -43.5t129 -44.5t117.5 -54.5t86.5 -80.5t33.5 -115q0 -128 -127 -243.5t-311 -141.5l-25 -69h49q96 0 152.5 -37t56.5 -107q0 -88 -80 -153.5t-198 -65.5z" />
    <glyph glyph-name="Scaron" unicode="&#x160;" horiz-adv-x="1275" 
d="M655 -31q-96 0 -184.5 26t-143.5 51.5t-71 25.5q-20 0 -72 -43t-78 -43q-20 0 -27 10.5t-5 32.5l24 481q1 32 25 36t49 -24l289 -358q41 -49 87.5 -77t119.5 -28q96 0 155.5 50.5t59.5 134.5q0 51 -26.5 91.5t-71 68t-102.5 50t-122 43.5t-128 43t-122 53.5t-102.5 70.5
t-71 97.5t-26.5 131.5q0 132 79 235.5t212 159t294 55.5q118 0 248.5 -25.5t190.5 -60.5q28 -17 33 -32.5t-3 -34.5l-84 -287q-9 -27 -30.5 -27.5t-44.5 23.5l-258 268q-1 1 -8.5 9.5t-10.5 11.5t-12 11.5t-15.5 13t-17 11.5t-20.5 11t-22.5 8t-26.5 6t-29 2
q-76 0 -117 -41.5t-41 -103.5q0 -55 28 -98t75 -71.5t108.5 -52.5t129 -44.5t135.5 -42.5t129.5 -52t108.5 -67t75 -93t28 -126q0 -89 -44.5 -177t-121 -157.5t-188 -112.5t-236.5 -43zM342 1671q-9 11 -6 24t14 13h119q40 0 59 -22l93 -82q23 -26 43 0l86 82q22 22 59 22
h115q12 0 16 -13t-6 -24l-178 -203q-24 -24 -49 -24h-136q-28 0 -49 24z" />
    <glyph glyph-name="scaron" unicode="&#x161;" horiz-adv-x="1048" 
d="M457 -31q-91 0 -187 22.5t-165.5 66.5t-69.5 96q0 49 48.5 116.5t88.5 67.5q20 0 44 -20.5t47 -51.5t54.5 -67.5t64 -67.5t78.5 -51.5t95 -20.5q62 0 89.5 27t27.5 70t-32 75t-82.5 53t-112 40t-123 43t-112 55t-82.5 84t-32 123q0 161 144 264.5t372 103.5
q44 0 89.5 -4.5t102.5 -17t92.5 -41t35.5 -70.5q0 -48 -35 -115t-78 -67q-23 0 -51 23.5t-58 57t-64.5 67.5t-81.5 57.5t-97 23.5q-88 0 -88 -73q0 -47 33.5 -82t86.5 -58t117.5 -43.5t129 -44.5t117.5 -54.5t86.5 -80.5t33.5 -115q0 -69 -41 -139t-110 -125.5t-168 -91
t-207 -35.5zM236 1327q-9 11 -6 24t14 13h118q40 0 60 -23l92 -81q23 -26 43 0l86 81q23 23 59 23h115q12 0 16 -13t-6 -24l-178 -203q-24 -24 -49 -24h-135q-28 0 -49 24z" />
    <glyph glyph-name="uni0162" unicode="&#x162;" horiz-adv-x="1460" 
d="M354 0q-15 0 -23.5 20t-8.5 33q0 14 51.5 30t103 36.5t51.5 44.5v1005q0 29 -28 29h-82q-23 0 -35 -20l-246 -383q-10 -17 -30.5 -24t-37.5 0t-16 26l33 485q0 33 35 33h1218q33 0 33 -33l33 -485q2 -19 -13.5 -26t-36.5 0t-32 24l-246 383q-14 20 -37 20h-82
q-12 0 -20 -8t-8 -21v-1005q0 -24 52 -44.5t103.5 -36.5t51.5 -30q0 -13 -8 -33t-23 -20h-340l-33 -94h49q96 0 152.5 -37t56.5 -107q0 -88 -80 -153.5t-198 -65.5q-93 0 -168.5 39t-75.5 86q0 15 8.5 30t26.5 15q17 0 37.5 -16.5t52 -33.5t76.5 -17q43 0 69.5 23t26.5 65
q0 80 -92 80q-16 0 -36 -2t-28 -2q-50 0 -37 43l50 147h-269z" />
    <glyph glyph-name="uni0163" unicode="&#x163;" horiz-adv-x="878" 
d="M442 -457q-93 0 -168 39t-75 86q0 15 8 30t26 15q17 0 37.5 -16.5t52 -33.5t76.5 -17q43 0 70 23t27 65q0 80 -93 80q-16 0 -35.5 -2t-27.5 -2q-50 0 -37 43l43 127q-47 9 -83 28.5t-57 47t-34.5 53.5t-18.5 60.5t-6.5 54.5t-1.5 48v463q0 19 -22 33.5t-48.5 22t-48.5 18
t-22 22.5q0 29 31 41q46 18 92 47.5t78 54.5t73 67.5t58 62.5t54 65.5t42 51.5q17 20 35 28t29.5 1.5t11.5 -25.5v-217q0 -37 39 -37h248q32 0 24 -35l-20 -92q-4 -25 -29 -25h-219q-35 0 -35 -39v-454q0 -22 3 -37.5t12.5 -32t30.5 -25t54 -8.5q82 0 170 45q40 19 52 19
q28 0 28 -27q0 -60 -48.5 -122t-137.5 -108.5t-193 -56.5l-24 -67h49q96 0 152.5 -37t56.5 -107q0 -88 -80.5 -153.5t-198.5 -65.5z" />
    <glyph glyph-name="Tcaron" unicode="&#x164;" horiz-adv-x="1460" 
d="M354 0q-15 0 -23.5 20t-8.5 33q0 14 51.5 30t103 36.5t51.5 44.5v1005q0 29 -28 29h-82q-23 0 -35 -20l-246 -383q-10 -17 -30.5 -24t-37.5 0t-16 26l33 485q0 33 35 33h1218q33 0 33 -33l33 -485q2 -19 -13.5 -26t-36.5 0t-32 24l-246 383q-14 20 -37 20h-82
q-12 0 -20 -8t-8 -21v-1005q0 -24 52 -44.5t103.5 -36.5t51.5 -30q0 -13 -8 -33t-23 -20h-752zM434 1671q-9 11 -6 24t14 13h119q41 0 60 -22l92 -82q23 -26 43 0l86 82q22 22 59 22h115q12 0 16 -13t-6 -24l-178 -203q-24 -24 -49 -24h-135q-29 0 -50 24z" />
    <glyph glyph-name="tcaron" unicode="&#x165;" horiz-adv-x="878" 
d="M436 -29q-59 0 -106 12.5t-76.5 30.5t-51.5 46.5t-32.5 53t-16.5 58.5t-7 53.5t-1 46.5v463q0 19 -22 33.5t-48.5 22t-48.5 18t-22 22.5q0 29 31 41q46 18 92 47.5t78 54.5t73 67.5t58 62.5t54 65.5t42 51.5q17 20 35 28t29.5 1.5t11.5 -25.5v-217q0 -37 39 -37h248
q32 0 24 -35l-20 -92q-4 -25 -29 -25h-219q-35 0 -35 -39v-454q0 -22 3 -37.5t12.5 -32t30.5 -25t54 -8.5q82 0 170 45q40 19 52 19q28 0 28 -27q0 -48 -33.5 -99t-89.5 -93t-137.5 -69.5t-169.5 -27.5zM592 1114q0 11 25 24t55 24.5t55 35t25 53.5q0 26 -27 41q-4 2 -19 10
t-23 12.5t-21 15.5t-19.5 21.5t-12 27t-5.5 36.5q0 61 36 99t119 38q91 0 131.5 -55.5t40.5 -134.5q0 -80 -47.5 -149t-116 -106.5t-137.5 -39.5q-28 0 -43.5 15t-15.5 32z" />
    <glyph glyph-name="Tbar" unicode="&#x166;" horiz-adv-x="1460" 
d="M344 520q-12 0 -20.5 8.5t-8.5 20.5v69q0 12 8.5 20.5t20.5 8.5h184v522q0 29 -28 29h-82q-23 0 -35 -20l-246 -383q-10 -17 -30.5 -24t-37.5 0t-16 26l33 485q0 33 35 33h1218q33 0 33 -33l33 -485q2 -19 -13.5 -26t-36.5 0t-32 24l-246 383q-14 20 -37 20h-82
q-12 0 -20 -8t-8 -21v-522h184q13 0 22 -8.5t9 -20.5v-69q0 -12 -9 -20.5t-22 -8.5h-184v-356q0 -24 52 -44.5t103.5 -36.5t51.5 -30q0 -13 -8 -33t-23 -20h-752q-15 0 -23.5 20t-8.5 33q0 14 51.5 30t103 36.5t51.5 44.5v356h-184z" />
    <glyph glyph-name="tbar" unicode="&#x167;" horiz-adv-x="878" 
d="M84 467q-12 0 -20.5 8.5t-8.5 20.5v71q0 12 8.5 20.5t20.5 8.5h61v139q0 19 -22 33.5t-48.5 22t-48.5 18t-22 22.5q0 29 31 41q46 18 92 47.5t78 54.5t73 67.5t58 62.5t54 65.5t42 51.5q17 20 35 28t29.5 1.5t11.5 -25.5v-217q0 -37 39 -37h248q32 0 24 -35l-20 -92
q-4 -25 -29 -25h-219q-35 0 -35 -39v-184h197q12 0 20 -8.5t8 -20.5v-71q0 -12 -8 -20.5t-20 -8.5h-197v-141q0 -22 3 -37.5t12.5 -32t30.5 -25t54 -8.5q82 0 170 45q40 19 52 19q28 0 28 -27q0 -48 -33.5 -99t-89.5 -93t-137.5 -69.5t-169.5 -27.5q-59 0 -106 12.5
t-76.5 30.5t-51.5 46.5t-32.5 53t-16.5 58.5t-7 53.5t-1 46.5v195h-61z" />
    <glyph glyph-name="Utilde" unicode="&#x168;" horiz-adv-x="1507" 
d="M774 -31q-277 0 -433.5 136.5t-156.5 410.5v645q0 19 -25.5 35t-56.5 24.5t-56.5 20t-25.5 23.5q0 11 9 31t24 20h738q16 0 25 -19.5t9 -31.5t-38 -35t-83.5 -45.5t-83.5 -51t-38 -49.5v-614q0 -141 74.5 -224t224.5 -83q157 0 231 87t74 234v588q0 19 -37 48.5t-81 55
t-81 51.5t-37 40q0 10 9 29.5t24 19.5h520q15 0 24 -20t9 -31q0 -12 -34 -32.5t-74.5 -39t-74.5 -43t-34 -43.5v-660q0 -227 -142 -352t-403 -125zM559 1516q7 93 66.5 146.5t146.5 45.5q46 -4 90.5 -34t82.5 -59.5t69 -31.5q50 -3 53 47q3 31 31 31h86q15 0 23.5 -10.5
t6.5 -24.5q-7 -94 -68 -148t-145 -46q-45 3 -91.5 33t-87 59.5t-70.5 31.5q-21 2 -36 -10.5t-16 -36.5q-3 -30 -28 -30h-86q-13 0 -21 11t-6 26z" />
    <glyph glyph-name="utilde" unicode="&#x169;" horiz-adv-x="1335" 
d="M410 -29q-119 0 -188.5 71.5t-69.5 221.5v471q0 19 -22 33.5t-49 22t-49 18t-22 22.5t8 25t27 16q17 2 68 8.5t79 11t72.5 13.5t85 23t80.5 33q49 24 68 24q22 0 22 -29v-557q0 -33 5 -64t18.5 -65t43 -54.5t72.5 -20.5q61 0 105.5 46t44.5 101v393q0 19 -22 33.5
t-48.5 22t-48.5 18t-22 22.5q0 11 8 24.5t24 16.5q18 3 80.5 11t100.5 14.5t97 23t109 40.5q52 24 68 24q23 0 23 -29v-817q0 -19 22 -33.5t48.5 -22t48.5 -18.5t22 -22t-9 -27t-24 -16h-387q-51 0 -59 49l-17 135q-2 10 -9 12.5t-19 -6.5q-2 -2 -27 -29t-44 -46t-57 -48.5
t-73.5 -48t-84.5 -33t-99 -14.5zM385 1171q7 93 66.5 147t146.5 46q46 -4 90.5 -34t82.5 -59.5t69 -31.5q50 -3 53 47q3 31 31 31h86q15 0 23.5 -10.5t6.5 -24.5q-7 -94 -68 -148.5t-145 -46.5q-45 3 -91.5 33t-87 60t-70.5 32q-21 2 -36 -10.5t-16 -36.5q-3 -30 -28 -30
h-86q-13 0 -21 10.5t-6 25.5z" />
    <glyph glyph-name="Umacron" unicode="&#x16a;" horiz-adv-x="1507" 
d="M774 -31q-277 0 -433.5 136.5t-156.5 410.5v645q0 19 -25.5 35t-56.5 24.5t-56.5 20t-25.5 23.5q0 11 9 31t24 20h738q16 0 25 -19.5t9 -31.5t-38 -35t-83.5 -45.5t-83.5 -51t-38 -49.5v-614q0 -141 74.5 -224t224.5 -83q157 0 231 87t74 234v588q0 19 -37 48.5t-81 55
t-81 51.5t-37 40q0 10 9 29.5t24 19.5h520q15 0 24 -20t9 -31q0 -12 -34 -32.5t-74.5 -39t-74.5 -43t-34 -43.5v-660q0 -227 -142 -352t-403 -125zM616 1524l11 84q1 13 11.5 21.5t23.5 8.5h462q39 0 33 -36l-12 -84q-5 -33 -35 -33h-461q-39 0 -33 39z" />
    <glyph glyph-name="umacron" unicode="&#x16b;" horiz-adv-x="1335" 
d="M410 -29q-119 0 -188.5 71.5t-69.5 221.5v471q0 19 -22 33.5t-49 22t-49 18t-22 22.5t8 25t27 16q17 2 68 8.5t79 11t72.5 13.5t85 23t80.5 33q49 24 68 24q22 0 22 -29v-557q0 -33 5 -64t18.5 -65t43 -54.5t72.5 -20.5q61 0 105.5 46t44.5 101v393q0 19 -22 33.5
t-48.5 22t-48.5 18t-22 22.5q0 11 8 24.5t24 16.5q18 3 80.5 11t100.5 14.5t97 23t109 40.5q52 24 68 24q23 0 23 -29v-817q0 -19 22 -33.5t48.5 -22t48.5 -18.5t22 -22t-9 -27t-24 -16h-387q-51 0 -59 49l-17 135q-2 10 -9 12.5t-19 -6.5q-2 -2 -27 -29t-44 -46t-57 -48.5
t-73.5 -48t-84.5 -33t-99 -14.5zM442 1180l11 84q1 13 11.5 21.5t22.5 8.5h463q39 0 33 -37l-12 -83q-5 -33 -35 -33h-461q-39 0 -33 39z" />
    <glyph glyph-name="Ubreve" unicode="&#x16c;" horiz-adv-x="1507" 
d="M774 -31q-277 0 -433.5 136.5t-156.5 410.5v645q0 19 -25.5 35t-56.5 24.5t-56.5 20t-25.5 23.5q0 11 9 31t24 20h738q16 0 25 -19.5t9 -31.5t-38 -35t-83.5 -45.5t-83.5 -51t-38 -49.5v-614q0 -141 74.5 -224t224.5 -83q157 0 231 87t74 234v588q0 19 -37 48.5t-81 55
t-81 51.5t-37 40q0 10 9 29.5t24 19.5h520q15 0 24 -20t9 -31q0 -12 -34 -32.5t-74.5 -39t-74.5 -43t-34 -43.5v-660q0 -227 -142 -352t-403 -125zM590 1679q-3 11 4 19t22 8h95q20 0 30 -29q41 -106 146 -106t145 106q11 29 33 29h90q15 0 22.5 -8t4.5 -19
q-29 -128 -100 -188.5t-195 -60.5q-125 0 -196.5 60.5t-100.5 188.5z" />
    <glyph glyph-name="ubreve" unicode="&#x16d;" horiz-adv-x="1335" 
d="M410 -29q-119 0 -188.5 71.5t-69.5 221.5v471q0 19 -22 33.5t-49 22t-49 18t-22 22.5t8 25t27 16q17 2 68 8.5t79 11t72.5 13.5t85 23t80.5 33q49 24 68 24q22 0 22 -29v-557q0 -33 5 -64t18.5 -65t43 -54.5t72.5 -20.5q61 0 105.5 46t44.5 101v393q0 19 -22 33.5
t-48.5 22t-48.5 18t-22 22.5q0 11 8 24.5t24 16.5q18 3 80.5 11t100.5 14.5t97 23t109 40.5q52 24 68 24q23 0 23 -29v-817q0 -19 22 -33.5t48.5 -22t48.5 -18.5t22 -22t-9 -27t-24 -16h-387q-51 0 -59 49l-17 135q-2 10 -9 12.5t-19 -6.5q-2 -2 -27 -29t-44 -46t-57 -48.5
t-73.5 -48t-84.5 -33t-99 -14.5zM416 1335q-3 11 4 19t22 8h95q20 0 30 -29q41 -106 146 -106t145 106q11 29 33 29h90q15 0 22.5 -8t4.5 -19q-29 -128 -100 -189t-195 -61q-125 0 -196.5 60.5t-100.5 189.5z" />
    <glyph glyph-name="Uring" unicode="&#x16e;" horiz-adv-x="1507" 
d="M774 -31q-277 0 -433.5 136.5t-156.5 410.5v645q0 19 -25.5 35t-56.5 24.5t-56.5 20t-25.5 23.5q0 11 9 31t24 20h623q-49 62 -49 143q0 100 73 169t187 69q115 0 188.5 -69t73.5 -169q0 -81 -49 -143h403q15 0 24 -20t9 -31q0 -12 -34 -32.5t-74.5 -39t-74.5 -43
t-34 -43.5v-660q0 -227 -142 -352t-403 -125zM582 469q0 -141 74.5 -224t224.5 -83q157 0 231 87t74 234v588q0 20 -36.5 48.5t-95 63.5t-77.5 50q-41 -12 -90 -12q-52 0 -90 14q-18 -11 -80.5 -44t-98.5 -59.5t-36 -48.5v-614zM774 1458q0 -54 31 -87.5t82 -33.5
q53 0 83.5 33t30.5 88q0 57 -30 90t-84 33q-51 0 -82 -33t-31 -90z" />
    <glyph glyph-name="uring" unicode="&#x16f;" horiz-adv-x="1335" 
d="M410 -29q-119 0 -188.5 71.5t-69.5 221.5v471q0 19 -22 33.5t-49 22t-49 18t-22 22.5t8 25t27 16q17 2 68 8.5t79 11t72.5 13.5t85 23t80.5 33q39 20 62 24q-39 58 -39 129q0 100 73 169t187 69q115 0 188.5 -69t73.5 -169q0 -86 -54 -149t-145 -82q192 21 311 78
q52 24 68 24q23 0 23 -29v-817q0 -19 22 -33.5t48.5 -22t48.5 -18.5t22 -22t-9 -27t-24 -16h-387q-51 0 -59 49l-17 135q-2 10 -9 12.5t-19 -6.5q-2 -2 -27 -29t-44 -46t-57 -48.5t-73.5 -48t-84.5 -33t-99 -14.5zM520 399q0 -33 5 -64t18.5 -65t43 -54.5t72.5 -20.5
q61 0 105.5 46t44.5 101v393q0 19 -22 33.5t-48.5 22t-48.5 18t-22 22.5q0 11 8 24.5t24 16.5q25 5 33 5h-20q-120 0 -193 73v-551zM600 1114q0 -54 31 -87.5t82 -33.5q53 0 83.5 33t30.5 88q0 57 -30 90t-84 33q-51 0 -82 -33t-31 -90z" />
    <glyph glyph-name="Uhungarumlaut" unicode="&#x170;" horiz-adv-x="1507" 
d="M774 -31q-277 0 -433.5 136.5t-156.5 410.5v645q0 19 -25.5 35t-56.5 24.5t-56.5 20t-25.5 23.5q0 11 9 31t24 20h738q16 0 25 -19.5t9 -31.5t-38 -35t-83.5 -45.5t-83.5 -51t-38 -49.5v-614q0 -141 74.5 -224t224.5 -83q157 0 231 87t74 234v588q0 19 -37 48.5t-81 55
t-81 51.5t-37 40q0 10 9 29.5t24 19.5h520q15 0 24 -20t9 -31q0 -12 -34 -32.5t-74.5 -39t-74.5 -43t-34 -43.5v-660q0 -227 -142 -352t-403 -125zM637 1421l6 183q1 24 19 36.5t40 12.5q39 0 91.5 -25t52.5 -55q0 -39 -27 -70l-92 -117q-20 -20 -47 -20q-23 0 -34 15.5
t-9 39.5zM963 1421l6 183q1 24 19.5 36.5t41.5 12.5q39 0 91.5 -25t52.5 -55q0 -36 -29 -70l-92 -117q-18 -20 -47 -20q-22 0 -33.5 16t-9.5 39z" />
    <glyph glyph-name="uhungarumlaut" unicode="&#x171;" horiz-adv-x="1335" 
d="M410 -29q-119 0 -188.5 71.5t-69.5 221.5v471q0 19 -22 33.5t-49 22t-49 18t-22 22.5t8 25t27 16q17 2 68 8.5t79 11t72.5 13.5t85 23t80.5 33q49 24 68 24q22 0 22 -29v-557q0 -33 5 -64t18.5 -65t43 -54.5t72.5 -20.5q61 0 105.5 46t44.5 101v393q0 19 -22 33.5
t-48.5 22t-48.5 18t-22 22.5q0 11 8 24.5t24 16.5q18 3 80.5 11t100.5 14.5t97 23t109 40.5q52 24 68 24q23 0 23 -29v-817q0 -19 22 -33.5t48.5 -22t48.5 -18.5t22 -22t-9 -27t-24 -16h-387q-51 0 -59 49l-17 135q-2 10 -9 12.5t-19 -6.5q-2 -2 -27 -29t-44 -46t-57 -48.5
t-73.5 -48t-84.5 -33t-99 -14.5zM446 1118l15 258q1 25 20 38t43 13q38 0 91 -24.5t53 -56.5q0 -25 -29 -70l-109 -180q-13 -25 -47 -25q-17 0 -27.5 13.5t-9.5 33.5zM758 1118l16 258q1 25 20.5 38t43.5 13q38 0 90.5 -24.5t52.5 -56.5q0 -25 -29 -70l-108 -180
q-13 -25 -49 -25q-17 0 -27.5 13.5t-9.5 33.5z" />
    <glyph glyph-name="Uogonek" unicode="&#x172;" horiz-adv-x="1507" 
d="M811 -451q-93 0 -165.5 47t-72.5 134q0 73 48.5 135t128.5 104q-266 6 -416 142.5t-150 404.5v645q0 19 -25.5 35t-56.5 24.5t-56.5 20t-25.5 23.5q0 11 9 31t24 20h738q16 0 25 -19.5t9 -31.5t-38 -35t-83.5 -45.5t-83.5 -51t-38 -49.5v-614q0 -141 74.5 -224t224.5 -83
q157 0 231 87t74 234v588q0 19 -37 48.5t-81 55t-81 51.5t-37 40q0 10 9 29.5t24 19.5h520q15 0 24 -20t9 -31q0 -12 -34 -32.5t-74.5 -39t-74.5 -43t-34 -43.5v-660q0 -188 -97.5 -306.5t-281.5 -155.5q-133 -100 -133 -209q0 -43 23 -60.5t69 -17.5q60 0 107.5 11t54.5 11
q26 0 26 -28q0 -51 -88 -96.5t-188 -45.5z" />
    <glyph glyph-name="uogonek" unicode="&#x173;" horiz-adv-x="1335" 
d="M410 -29q-119 0 -188.5 71.5t-69.5 221.5v471q0 19 -22 33.5t-49 22t-49 18t-22 22.5t8 25t27 16q17 2 68 8.5t79 11t72.5 13.5t85 23t80.5 33q49 24 68 24q22 0 22 -29v-557q0 -33 5 -64t18.5 -65t43 -54.5t72.5 -20.5q61 0 105.5 46t44.5 101v393q0 19 -22 33.5
t-48.5 22t-48.5 18t-22 22.5q0 11 8 24.5t24 16.5q18 3 80.5 11t100.5 14.5t97 23t109 40.5q52 24 68 24q23 0 23 -29v-817q0 -19 22 -33.5t48.5 -22t48.5 -18.5t22 -22t-9 -27t-24 -16h-96q-154 -109 -154 -225q0 -43 23 -60.5t69 -17.5q60 0 107.5 11t54.5 11q27 0 27 -28
q0 -51 -88.5 -96.5t-188.5 -45.5q-93 0 -165 47t-72 134q0 90 68.5 160.5t177.5 109.5h-150q-51 0 -59 49l-17 135q-2 10 -9 12.5t-19 -6.5q-2 -2 -27 -29t-44 -46t-57 -48.5t-73.5 -48t-84.5 -33t-99 -14.5z" />
    <glyph glyph-name="Wcircumflex" unicode="&#x174;" horiz-adv-x="2078" 
d="M96 1184q-8 19 -49.5 32t-78 23t-36.5 23t9 33t24 20h653q16 0 25.5 -19.5t9.5 -31.5t-18 -23t-38.5 -17.5t-35.5 -17.5t-10 -24l252 -621q6 -16 23.5 -15t23.5 15l106 248q26 50 11 84l-125 293q-8 19 -38 31t-55.5 21.5t-25.5 23.5t8.5 33.5t24.5 19.5h587
q16 0 25.5 -19.5t9.5 -31.5t-17.5 -23t-37.5 -17.5t-34 -17.5t-9 -24l250 -623q6 -16 23.5 -15t23.5 15l119 270q15 30 17 66.5t-9 62.5l-105 236q-9 19 -73 34.5t-64 33.5q0 13 9 33t24 20h621q15 0 22.5 -19.5t7.5 -33.5q0 -12 -34 -22t-72.5 -22t-46.5 -28l-576 -1184
q-14 -30 -44 -30t-42 30l-266 643q-9 21 -28.5 22t-30.5 -22l-312 -643q-14 -30 -44 -30t-42 30zM743 1477l181 204q19 27 49 27h135q26 0 49 -27l178 -204q9 -11 6.5 -22t-14.5 -11h-129q-39 0 -55 20l-86 88q-20 26 -43 0l-92 -88q-20 -20 -52 -20h-118q-12 0 -15 11t6 22
z" />
    <glyph glyph-name="wcircumflex" unicode="&#x175;" horiz-adv-x="1798" 
d="M117 852q-10 17 -43 29.5t-60.5 22t-27.5 22.5t8 29t24 16h533q15 0 24 -16t9 -27t-15.5 -21t-31.5 -17.5t-26 -22t1 -33.5l193 -388q6 -14 21.5 -14t23.5 14l79 160q22 43 0 86l-79 160q-8 17 -38.5 29t-55.5 22t-25 25q0 10 9 26.5t24 16.5h516q13 0 22.5 -16t9.5 -27
q0 -10 -16.5 -20.5t-34.5 -18.5t-29 -23t1 -35l192 -380q8 -14 22.5 -13.5t20.5 11.5l92 174q21 34 0 82l-69 147q-10 19 -70.5 39t-60.5 37q0 12 8.5 27.5t23.5 15.5h514q16 0 24.5 -16.5t8.5 -28.5t-28 -22.5t-64 -27t-51 -42.5l-463 -822q-13 -23 -40 -24t-40 24
l-223 455q-8 18 -26.5 18t-29.5 -18l-262 -455q-14 -24 -41 -24t-41 24zM614 1133l181 204q19 27 49 27h135q26 0 49 -27l178 -204q9 -11 6.5 -22t-14.5 -11h-129q-39 0 -55 20l-86 88q-20 26 -43 0l-92 -88q-20 -20 -52 -20h-118q-12 0 -15 11t6 22z" />
    <glyph glyph-name="Ycircumflex" unicode="&#x176;" horiz-adv-x="1374" 
d="M309 0q-15 0 -24 20t-9 33q0 14 52 30t104.5 36.5t52.5 44.5v385q0 50 -30 98l-351 539q-12 18 -55.5 30.5t-80 22.5t-36.5 23t9 33t24 20h723q16 0 24.5 -19.5t8.5 -31.5t-25 -24t-51 -21.5t-42.5 -28.5t1.5 -45l197 -307q11 -14 22.5 -14t20.5 14l114 172
q12 17 16.5 24t9.5 18.5t4.5 20t-5.5 17.5l-57 86q-14 21 -42.5 36t-48.5 25.5t-20 26.5q0 11 9 31t24 20h563q15 0 24 -20t9 -33q0 -17 -49.5 -29t-112 -31t-84.5 -51l-283 -418q-28 -42 -28 -86v-483q0 -24 51.5 -44.5t103.5 -36.5t52 -30t-8.5 -33.5t-24.5 -19.5h-752z
M391 1477l180 204q19 27 50 27h135q26 0 49 -27l178 -204q9 -11 6.5 -22t-14.5 -11h-129q-39 0 -55 20l-86 88q-20 26 -43 0l-93 -88q-20 -20 -51 -20h-119q-12 0 -14.5 11t6.5 22z" />
    <glyph glyph-name="ycircumflex" unicode="&#x177;" horiz-adv-x="1247" 
d="M285 -334q-91 0 -155 47t-64 131q0 82 51 133.5t141 51.5q35 0 64 -11t47.5 -26.5t35 -31.5t34 -27t36.5 -11q59 0 99 62.5t16 101.5l-457 766q-10 17 -47.5 29.5t-68.5 22t-31 22.5t8 29t24 16h598q15 0 24 -16t9 -27q0 -14 -33 -27t-58 -29t-11 -38l217 -381
q10 -13 21.5 -12t19.5 12l106 204q21 41 2 78l-63 117q-10 18 -70.5 38.5t-60.5 37.5q0 11 9 27t24 16h503q16 0 24.5 -16t8.5 -29q0 -12 -28 -22.5t-64 -27t-51 -42.5l-426 -766q-3 -6 -27.5 -50t-35.5 -63.5t-40.5 -64t-50.5 -68.5t-56 -58.5t-66.5 -52.5t-73 -31.5
t-84.5 -13.5zM379 1133l180 204q19 27 49 27h135q27 0 50 -27l178 -204q9 -11 6.5 -22t-14.5 -11h-129q-40 0 -56 20l-86 88q-20 26 -43 0l-92 -88q-20 -20 -51 -20h-119q-12 0 -14.5 11t6.5 22z" />
    <glyph glyph-name="Ydieresis" unicode="&#x178;" horiz-adv-x="1374" 
d="M309 0q-15 0 -24 20t-9 33q0 14 52 30t104.5 36.5t52.5 44.5v385q0 50 -30 98l-351 539q-12 18 -55.5 30.5t-80 22.5t-36.5 23t9 33t24 20h723q16 0 24.5 -19.5t8.5 -31.5t-25 -24t-51 -21.5t-42.5 -28.5t1.5 -45l197 -307q11 -14 22.5 -14t20.5 14l114 172
q12 17 16.5 24t9.5 18.5t4.5 20t-5.5 17.5l-57 86q-14 21 -42.5 36t-48.5 25.5t-20 26.5q0 11 9 31t24 20h563q15 0 24 -20t9 -33q0 -17 -49.5 -29t-112 -31t-84.5 -51l-283 -418q-28 -42 -28 -86v-483q0 -24 51.5 -44.5t103.5 -36.5t52 -30t-8.5 -33.5t-24.5 -19.5h-752z
M369 1581q0 51 36 88t87 37t88.5 -37t37.5 -88t-37.5 -87t-88.5 -36t-87 36t-36 87zM760 1581q0 51 38 88t89 37q50 0 86.5 -37t36.5 -88t-36.5 -87t-86.5 -36q-51 0 -89 36t-38 87z" />
    <glyph glyph-name="Zacute" unicode="&#x179;" horiz-adv-x="1298" 
d="M109 0q-35 0 -48.5 25t5.5 59l671 1094q9 17 1.5 33t-27.5 16h-158q-29 0 -49 -25l-320 -381q-14 -16 -32 -19.5t-30 5t-11 22.5l43 437q4 49 63 49h973q34 0 47.5 -24t-4.5 -56l-649 -1051q-8 -16 0.5 -32.5t29.5 -16.5h150q39 0 90 55l330 363q18 20 40.5 24t36 -7.5
t9.5 -30.5l-96 -486q-4 -19 -7.5 -28.5t-16.5 -17t-36 -7.5h-1005zM401 1446q-10 31 21 45l348 160q32 15 43.5 20t28.5 10t32 5q43 0 70 -33.5t29 -75.5q2 -27 -15.5 -55.5t-66.5 -36.5l-432 -84q-37 -9 -47 20z" />
    <glyph glyph-name="zacute" unicode="&#x17a;" horiz-adv-x="1060" 
d="M80 0q-22 0 -37.5 21.5t0.5 46.5l477 770q8 12 1.5 25.5t-21.5 13.5h-105q-33 0 -57 -27l-191 -223q-24 -26 -53 -15t-24 37l49 283q4 19 14.5 29t38.5 10h768q25 0 38 -20t-1 -46l-455 -729q-6 -11 1.5 -24t21.5 -13h117q23 0 36.5 5.5t32.5 27.5l223 252
q17 17 36.5 17.5t31 -11.5t8.5 -29l-80 -360q-9 -41 -43 -41h-827zM340 1094q-13 13 12 49l174 227q64 86 133 86q48 0 76.5 -33t28.5 -75q0 -40 -21.5 -69.5t-70.5 -59.5l-264 -158q-20 -8 -27 -6.5t-21 14.5z" />
    <glyph glyph-name="Zdotaccent" unicode="&#x17b;" horiz-adv-x="1298" 
d="M109 0q-35 0 -48.5 25t5.5 59l671 1094q9 17 1.5 33t-27.5 16h-158q-29 0 -49 -25l-320 -381q-14 -16 -32 -19.5t-30 5t-11 22.5l43 437q4 49 63 49h973q34 0 47.5 -24t-4.5 -56l-649 -1051q-8 -16 0.5 -32.5t29.5 -16.5h150q39 0 90 55l330 363q18 20 40.5 24t36 -7.5
t9.5 -30.5l-96 -486q-4 -19 -7.5 -28.5t-16.5 -17t-36 -7.5h-1005zM524 1567q0 63 46 105t114 42t115 -42t47 -105q0 -57 -48 -100.5t-114 -43.5t-113 43.5t-47 100.5z" />
    <glyph glyph-name="zdotaccent" unicode="&#x17c;" horiz-adv-x="1060" 
d="M80 0q-22 0 -37.5 21.5t0.5 46.5l477 770q8 12 1.5 25.5t-21.5 13.5h-105q-33 0 -57 -27l-191 -223q-24 -26 -53 -15t-24 37l49 283q4 19 14.5 29t38.5 10h768q25 0 38 -20t-1 -46l-455 -729q-6 -11 1.5 -24t21.5 -13h117q23 0 36.5 5.5t32.5 27.5l223 252
q17 17 36.5 17.5t31 -11.5t8.5 -29l-80 -360q-9 -41 -43 -41h-827zM389 1223q0 63 46 105t114 42t115 -42t47 -105q0 -57 -48 -100.5t-114 -43.5t-113 43.5t-47 100.5z" />
    <glyph glyph-name="Zcaron" unicode="&#x17d;" horiz-adv-x="1298" 
d="M109 0q-35 0 -48.5 25t5.5 59l671 1094q9 17 1.5 33t-27.5 16h-158q-29 0 -49 -25l-320 -381q-14 -16 -32 -19.5t-30 5t-11 22.5l43 437q4 49 63 49h973q34 0 47.5 -24t-4.5 -56l-649 -1051q-8 -16 0.5 -32.5t29.5 -16.5h150q39 0 90 55l330 363q18 20 40.5 24t36 -7.5
t9.5 -30.5l-96 -486q-4 -19 -7.5 -28.5t-16.5 -17t-36 -7.5h-1005zM389 1671q-9 11 -6 24t14 13h119q40 0 59 -22l93 -82q23 -26 43 0l86 82q22 22 59 22h115q12 0 16 -13t-6 -24l-178 -203q-24 -24 -49 -24h-136q-28 0 -49 24z" />
    <glyph glyph-name="zcaron" unicode="&#x17e;" horiz-adv-x="1060" 
d="M80 0q-22 0 -37.5 21.5t0.5 46.5l477 770q8 12 1.5 25.5t-21.5 13.5h-105q-33 0 -57 -27l-191 -223q-24 -26 -53 -15t-24 37l49 283q4 19 14.5 29t38.5 10h768q25 0 38 -20t-1 -46l-455 -729q-6 -11 1.5 -24t21.5 -13h117q23 0 36.5 5.5t32.5 27.5l223 252
q17 17 36.5 17.5t31 -11.5t8.5 -29l-80 -360q-9 -41 -43 -41h-827zM252 1327q-9 11 -6 24t14 13h119q39 0 59 -23l92 -81q23 -26 43 0l86 81q23 23 60 23h115q12 0 16 -13t-6 -24l-178 -203q-24 -24 -50 -24h-135q-28 0 -49 24z" />
    <glyph glyph-name="florin" unicode="&#x192;" horiz-adv-x="1265" 
d="M88 -420q-95 0 -156 49.5t-61 128.5q0 64 44 107t112 43q42 0 74 -18.5t52.5 -45.5t38.5 -54t40 -45.5t49 -18.5q77 0 77 131v544q0 16 -15.5 29.5t-41.5 13.5h-78q-14 0 -24 10t-9 23l11 86q1 13 11.5 22t20.5 9h76q10 0 18.5 7.5t10.5 16.5q9 77 32.5 152.5t70 156.5
t110.5 142t161.5 100t215.5 39q75 0 136 -24t97.5 -62.5t56 -82.5t19.5 -87q0 -102 -55 -162.5t-146 -60.5q-73 0 -126.5 42t-53.5 114q0 36 17.5 68t39 51t39 39.5t17.5 35.5t-11.5 25t-33.5 10q-85 0 -138 -73t-53 -218v-184q0 -24 10.5 -34.5t40.5 -10.5h156q14 0 24 -9
t7 -22l-15 -86q-4 -33 -30 -33h-154q-17 0 -24.5 -9t-12.5 -29l-59 -279q-40 -149 -139 -277t-219.5 -199t-229.5 -71z" />
    <glyph glyph-name="AEacute" unicode="&#x1fc;" horiz-adv-x="1914" 
d="M-39 0q-16 0 -24.5 19.5t-8.5 31.5t38 34t91 58.5t80 77.5l590 891q58 81 -2 109q-62 22 -71 32q-5 6 -5 11q0 12 8.5 31.5t24.5 19.5h1038q19 0 33 -12.5t14 -32.5l21 -439q1 -18 -9 -25.5t-25 -1.5t-28 25l-249 338q-15 23 -50 23h-190q-13 0 -22 -9t-9 -22v-393
q0 -13 8.5 -21t22.5 -8h82q17 0 29 15l157 184q13 16 29 10t16 -24v-525q0 -19 -16.5 -25t-28.5 11l-157 215q-11 14 -29 14h-82q-14 0 -22.5 -8.5t-8.5 -21.5v-400q0 -21 10.5 -34t30.5 -13h187q46 0 86 53l239 330q23 32 46 32t20 -40l-39 -457q-3 -53 -60 -53h-1044
q-16 0 -24.5 19.5t-8.5 31.5t24.5 23.5t53.5 20t53.5 24.5t24.5 35v223q-6 16 -33 16h-362q-17 0 -25 -14l-18 -31q-11 -16 0 -39l59 -182q7 -24 45 -35.5t72.5 -18.5t34.5 -22q0 -12 -8 -31.5t-23 -19.5h-586zM510 565q-7 -15 -1 -21.5t15 -6.5h256q19 0 25 16v403
q-4 13 -18 11.5t-25 -19.5zM672 1446q-11 32 20 45l348 160q75 35 105 35q43 0 69.5 -33.5t28.5 -75.5q2 -27 -15.5 -55.5t-66.5 -36.5l-432 -84q-37 -9 -47 20z" />
    <glyph glyph-name="aeacute" unicode="&#x1fd;" horiz-adv-x="1814" 
d="M332 -25q-129 0 -205 69.5t-76 195.5q0 50 10.5 83t39 53.5t49 29t70.5 22.5q9 3 13 4l412 121q27 8 37 19.5t10 37.5v152q0 73 -43 114.5t-117 41.5q-75 0 -75 -46q0 -14 21.5 -50t21.5 -79q0 -90 -71.5 -149t-170.5 -59q-135 0 -135 131q0 139 152 235t378 96
q207 0 291 -77q132 77 303 77q201 0 334 -100.5t133 -243.5q0 -28 -5.5 -46.5t-16.5 -26t-19.5 -9.5t-21.5 -2h-547q-11 0 -17.5 -2t-12 -13t-5.5 -32q0 -50 19.5 -98.5t56.5 -91t100 -68.5t141 -26q187 0 295 120q4 5 15.5 18.5t16 18t13 12.5t14.5 10.5t13 2.5
q27 0 27 -45q0 -37 -16 -85t-55 -105.5t-95.5 -104.5t-148.5 -79t-203 -32q-113 0 -219 32.5t-187 96.5q-7 5 -19 15t-18 14l-15 10t-17 8t-17 2q-30 0 -77 -27t-92.5 -59t-119 -59t-149.5 -27zM436 313q0 -73 31.5 -118t99.5 -45q38 0 83.5 24t60.5 45q20 25 2 86
q-17 54 -23 129q-7 29 -41 19l-143 -41q-39 -8 -54.5 -27t-15.5 -72zM717 1133q-13 13 12 49l174 227q64 86 133 86q48 0 76.5 -33.5t28.5 -75.5q0 -40 -21.5 -69.5t-70.5 -59.5l-265 -157q-11 -7 -19.5 -7t-13 3t-14.5 12zM1059 717q0 -24 7.5 -37t14 -14.5t17.5 -1.5h188
q12 0 18.5 1t16 7t14 21.5t4.5 41.5q0 76 -40 132.5t-101 56.5q-48 0 -81.5 -42t-45.5 -86.5t-12 -78.5z" />
    <glyph glyph-name="Oslashacute" unicode="&#x1fe;" horiz-adv-x="1531" 
d="M346 -61q-33 17 -16 57l35 67q-152 78 -244 219t-92 345q0 148 51 278.5t144 227.5t232 153.5t306 56.5q136 0 260 -36l45 84q19 38 61 16l60 -29q35 -18 16 -55l-39 -72q154 -79 246 -220t92 -345q0 -147 -51 -277.5t-144 -228t-232 -154.5t-306 -57q-133 0 -260 37
l-43 -80q-21 -41 -64 -16zM459 905q0 -250 90 -493l352 663q-105 176 -233 176q-100 0 -154.5 -86t-54.5 -260zM483 1446q-10 31 21 45l348 160q32 15 43.5 20t28.5 10t32 5q43 0 70 -33.5t29 -75.5q2 -27 -15.5 -55.5t-66.5 -36.5l-432 -84q-37 -9 -47 20zM631 238
q110 -177 233 -177q98 0 153.5 87t55.5 258q0 246 -92 495z" />
    <glyph glyph-name="oslashacute" unicode="&#x1ff;" horiz-adv-x="1200" 
d="M307 -127q-22 11 -12 39l45 104q-139 55 -225 164.5t-86 276.5q0 108 39.5 205.5t110.5 172t179.5 118.5t237.5 44q82 0 168 -18l51 119q9 26 41 12l35 -16q24 -10 12 -35l-47 -107q141 -52 228 -160.5t87 -277.5q0 -109 -39.5 -207.5t-110.5 -173.5t-179.5 -119.5
t-237.5 -44.5q-78 0 -168 19l-51 -119q-11 -25 -41 -12zM391 1094q-13 13 12 49l175 227q64 86 133 86q48 0 76 -33t28 -75q0 -40 -21.5 -69.5t-70.5 -59.5l-264 -158q-11 -7 -19.5 -7t-13 3t-14.5 12zM416 715q0 -204 55 -400l209 473q-66 138 -148 138q-65 0 -90.5 -53.5
t-25.5 -157.5zM520 180q68 -135 148 -135q65 0 90.5 53t25.5 156q0 203 -55 403z" />
    <glyph glyph-name="uni0218" unicode="&#x218;" horiz-adv-x="1275" 
d="M655 -31q-96 0 -184.5 26t-143.5 51.5t-71 25.5q-20 0 -72 -43t-78 -43q-20 0 -27 10.5t-5 32.5l24 481q1 32 25 36t49 -24l289 -358q41 -49 87.5 -77t119.5 -28q96 0 155.5 50.5t59.5 134.5q0 51 -26.5 91.5t-71 68t-102.5 50t-122 43.5t-128 43t-122 53.5t-102.5 70.5
t-71 97.5t-26.5 131.5q0 132 79 235.5t212 159t294 55.5q118 0 248.5 -25.5t190.5 -60.5q28 -17 33 -32.5t-3 -34.5l-84 -287q-9 -27 -30.5 -27.5t-44.5 23.5l-258 268q-1 1 -8.5 9.5t-10.5 11.5t-12 11.5t-15.5 13t-17 11.5t-20.5 11t-22.5 8t-26.5 6t-29 2
q-76 0 -117 -41.5t-41 -103.5q0 -55 28 -98t75 -71.5t108.5 -52.5t129 -44.5t135.5 -42.5t129.5 -52t108.5 -67t75 -93t28 -126q0 -89 -44.5 -177t-121 -157.5t-188 -112.5t-236.5 -43zM485 -211q0 69 43.5 104t108.5 35q76 0 113.5 -51.5t37.5 -122.5q0 -107 -72.5 -178.5
t-148.5 -71.5q-39 0 -39 17t21 36t42 42t21 49q0 13 -6.5 20t-12.5 8.5t-22 4.5q-86 11 -86 108z" />
    <glyph glyph-name="uni0219" unicode="&#x219;" horiz-adv-x="1048" 
d="M457 -31q-91 0 -187 22.5t-165.5 66.5t-69.5 96q0 49 48.5 116.5t88.5 67.5q20 0 44 -20.5t47 -51.5t54.5 -67.5t64 -67.5t78.5 -51.5t95 -20.5q62 0 89.5 27t27.5 70t-32 75t-82.5 53t-112 40t-123 43t-112 55t-82.5 84t-32 123q0 161 144 264.5t372 103.5
q44 0 89.5 -4.5t102.5 -17t92.5 -41t35.5 -70.5q0 -48 -35 -115t-78 -67q-23 0 -51 23.5t-58 57t-64.5 67.5t-81.5 57.5t-97 23.5q-88 0 -88 -73q0 -47 33.5 -82t86.5 -58t117.5 -43.5t129 -44.5t117.5 -54.5t86.5 -80.5t33.5 -115q0 -69 -41 -139t-110 -125.5t-168 -91
t-207 -35.5zM365 -211q0 69 43 104t108 35q76 0 114 -51.5t38 -122.5q0 -107 -73 -178.5t-149 -71.5q-38 0 -38 17t21 36t42 42t21 49q0 13 -6.5 20t-12.5 8.5t-22 4.5q-86 11 -86 108z" />
    <glyph glyph-name="uni021A" unicode="&#x21a;" horiz-adv-x="1460" 
d="M354 0q-15 0 -23.5 20t-8.5 33q0 14 51.5 30t103 36.5t51.5 44.5v1005q0 29 -28 29h-82q-23 0 -35 -20l-246 -383q-10 -17 -30.5 -24t-37.5 0t-16 26l33 485q0 33 35 33h1218q33 0 33 -33l33 -485q2 -19 -13.5 -26t-36.5 0t-32 24l-246 383q-14 20 -37 20h-82
q-12 0 -20 -8t-8 -21v-1005q0 -24 52 -44.5t103.5 -36.5t51.5 -30q0 -13 -8 -33t-23 -20h-752zM578 -211q0 69 43 104t108 35q76 0 114 -51.5t38 -122.5q0 -107 -73 -178.5t-149 -71.5q-38 0 -38 17t21 36t42 42t21 49q0 13 -6.5 20t-12.5 8.5t-22 4.5q-86 11 -86 108z" />
    <glyph glyph-name="uni021B" unicode="&#x21b;" horiz-adv-x="878" 
d="M436 -29q-59 0 -106 12.5t-76.5 30.5t-51.5 46.5t-32.5 53t-16.5 58.5t-7 53.5t-1 46.5v463q0 19 -22 33.5t-48.5 22t-48.5 18t-22 22.5q0 29 31 41q46 18 92 47.5t78 54.5t73 67.5t58 62.5t54 65.5t42 51.5q17 20 35 28t29.5 1.5t11.5 -25.5v-217q0 -37 39 -37h248
q32 0 24 -35l-20 -92q-4 -25 -29 -25h-219q-35 0 -35 -39v-454q0 -22 3 -37.5t12.5 -32t30.5 -25t54 -8.5q82 0 170 45q40 19 52 19q28 0 28 -27q0 -48 -33.5 -99t-89.5 -93t-137.5 -69.5t-169.5 -27.5zM307 -211q0 69 43.5 104t108.5 35q76 0 113.5 -51.5t37.5 -122.5
q0 -107 -72.5 -178.5t-148.5 -71.5q-39 0 -39 17t21 36t42 42t21 49q0 13 -6.5 20t-12.5 8.5t-22 4.5q-86 11 -86 108z" />
    <glyph glyph-name="uni0237" unicode="&#x237;" 
d="M14 -393q-43 0 -43 26q0 8 19.5 29.5t46.5 57.5t54.5 88t47 140.5t19.5 194.5v574q0 19 -22 34t-49 23t-49 19t-22 22q0 36 31 43q36 8 100 21t90 19t68 17.5t74 24.5t67 31q2 1 14.5 7t24 10.5t19.5 4.5q24 0 24 -28v-762q0 -100 -21.5 -185t-56 -144.5t-81 -107.5
t-94.5 -77t-98.5 -48t-90 -26.5t-72.5 -7.5z" />
    <glyph glyph-name="circumflex" unicode="&#x2c6;" horiz-adv-x="911" 
d="M168 1100q-12 0 -14.5 11t6.5 22l180 204q19 27 49 27h135q26 0 49 -27l179 -204q9 -11 6 -22t-15 -11h-129q-39 0 -55 20l-86 88q-20 26 -43 0l-92 -88q-20 -20 -51 -20h-119z" />
    <glyph glyph-name="caron" unicode="&#x2c7;" horiz-adv-x="911" 
d="M389 1100q-28 0 -49 24l-180 203q-9 11 -6 24t14 13h119q39 0 59 -23l92 -81q23 -26 43 0l86 81q23 23 60 23h114q12 0 16.5 -13t-5.5 -24l-179 -203q-24 -24 -49 -24h-135z" />
    <glyph glyph-name="breve" unicode="&#x2d8;" horiz-adv-x="899" 
d="M451 1085q-125 0 -196.5 60.5t-100.5 189.5q-3 11 4 19t22 8h94q21 0 31 -29q41 -106 146 -106t145 106q11 29 33 29h90q15 0 22 -8t4 -19q-29 -129 -99.5 -189.5t-194.5 -60.5z" />
    <glyph glyph-name="dotaccent" unicode="&#x2d9;" horiz-adv-x="626" 
d="M313 1079q-66 0 -112.5 43.5t-46.5 100.5q0 63 45.5 105t113.5 42t115 -42t47 -105q0 -57 -48 -100.5t-114 -43.5z" />
    <glyph glyph-name="ring" unicode="&#x2da;" horiz-adv-x="829" 
d="M414 940q-114 0 -187 68.5t-73 169.5q0 100 73 168.5t187 68.5q115 0 188.5 -68.5t73.5 -168.5q0 -101 -73.5 -169.5t-188.5 -68.5zM301 1178q0 -54 31 -87.5t82 -33.5q53 0 83.5 33t30.5 88q0 57 -30 89.5t-84 32.5q-51 0 -82 -32.5t-31 -89.5z" />
    <glyph glyph-name="ogonek" unicode="&#x2db;" horiz-adv-x="821" 
d="M391 -451q-93 0 -165 47t-72 134q0 90 68 160.5t177 109.5h142q-154 -109 -154 -225q0 -43 23 -60.5t69 -17.5q60 0 107.5 11t54.5 11q27 0 27 -28q0 -51 -88.5 -96.5t-188.5 -45.5z" />
    <glyph glyph-name="tilde" unicode="&#x2dc;" horiz-adv-x="960" 
d="M596 1087q-36 3 -73.5 22t-63.5 41t-57.5 41t-55.5 21q-21 2 -35.5 -10.5t-15.5 -36.5q-3 -30 -29 -30h-86q-13 0 -20.5 10.5t-5.5 25.5q7 93 66.5 147t146.5 46q37 -3 73 -22.5t60 -41.5t53.5 -40.5t54.5 -20.5q51 -3 54 47q3 31 30 31h86q15 0 24 -10.5t7 -24.5
q-7 -94 -68 -148.5t-145 -46.5z" />
    <glyph glyph-name="hungarumlaut" unicode="&#x2dd;" horiz-adv-x="839" 
d="M502 1071q-17 0 -27.5 13.5t-9.5 33.5l16 258q1 25 20.5 38t43.5 13q38 0 90.5 -24.5t52.5 -56.5q0 -25 -29 -70l-108 -180q-13 -25 -49 -25zM154 1118l14 258q1 25 20 38t43 13q38 0 91 -24.5t53 -56.5q0 -25 -29 -70l-108 -180q-13 -25 -48 -25q-17 0 -27.5 13.5
t-8.5 33.5z" />
    </font>
</defs>
</svg>
